//TJADB Project
TITLE:POLARiSNAUT
TITLEJA:POLARiSNAUT
SUBTITLE:--cosMo@bousouP
SUBTITLEJA:cosMo@暴走P
BPM:226
WAVE:POLARiSNAUT.ogg
OFFSET:-0.280
DEMOSTART:12.755

COURSE:Oni
LEVEL:10
BALLOON:10
SCOREINIT:810
SCOREDIFF:0
#START
#GOGOSTART
1112221112221112,
2211122210220220,
1111221111221111,
2211112210220220,
3002103002103002,
#MEASURE 3/4
103002102222, //6
#GOGOEND
#MEASURE 4/4
20020020,
02002000,
20020020,
0020202022222222,
0004,
000000002222, //12
1020102210201000,
1220102212201022,
1020102210201000,
1222102012221010,
1020102210201000,
1220102212201022,
1020102210201111,
202020000000000000202020000000100100202020000000, //20
#GOGOSTART
1020201020201210,
2011102011102111,
1020201020201210,
1022101022101222,
1020201020201210,
2011102011102111,
1020201020201210,
1022101022101222, //28
#GOGOEND
1022201022201022,
2010222220120210,
1022101022101022,
1010222220120210,
2011102011102011,
1020111110121210,
1010101011111111,
500000000008000000101010200010002000100020001000, //36
#GOGOSTART
10221221,
202020002000100000100000200200100100200200100100,
1000200010010010,
202020002000100020001000200200100100200200100200,
1000201210202010,
202020002000100200100200100000002000000010000000,
200000001000000050000000000000000008000000200200,
#GOGOEND
122212122212, //44
#GOGOSTART
10221221,
202020002000100000100000200200100100200200100100,
1000200010010010,
202020002000100020001000200200100100200200100200,
1020201210202012,
1120201210202111,
24024023,
#GOGOEND
000000100100200000000000200020002000100020002000, //52
#GOGOSTART
2010102000221020,
1202101222101020,
1021102011201020,
202020202020200000100200200200100000100000200000,
1111102011211020,
1212102012221020,
1022102012201020,
1021012010020020, //60
500000000008000000100100100000000200000000200000,
1222222210020020,
1020102000111020,
1120211010120210,
1012101012101012,
1011101011101011,
1012102012101012,
1020121012212210, //68
#GOGOEND
100000222020200000222020,
200000200000222220202020,
200000222020200000222020,
200000200000222220202020,
100000222020100000222020,
100000222020102020102020,
100200102020100200102020,
100200202020, //76
#GOGOSTART
101010101010201010101011,
101010101010201010101011,
101010111010201010111010,
111010101010201010101010,
#GOGOEND
100000200200200010001000100000002000000020000000,
111010222020100020002000,
100000100100200010002000100100100000200000100100,
222020102020100020002000, //84
#GOGOSTART
1020112010201120,
1021012010201120,
1010112010201120,
1021102010201120,
1020112110201121,
1021012010211120,
1111111111111111,
500000000000000000000000000000000000000008000000,
#GOGOEND
2,
000000000222, //94
200000000000000000200200200000002000000020000000,
222222202020,
22220222,
200222,
100222200222,
200000200000000200000000200000000000200020002000,
22112212,
1010202022222222, //102
#GOGOSTART
1022201022201022,
2010020010200100,
#GOGOEND
2022202022202022,
200000200000200200200000200020002000200020002000,
#GOGOSTART
1021201021201021,
2010020010200100,
#GOGOEND
500000000000000000000000000000000008000000100100,
7008, //110
#GOGOSTART
1022102012221020,
102020202020100000200200100000200200100200100000,
1022102012221020,
102020202020100000200200100200100200100000200000,
1022102010221020,
102020202020100000100000100200100200100200100200,
1022112211221122,
101010101010100100100100101010101010100100100100, //118
#GOGOEND
500000000000000008000000200000002000000020000000,
300000000000202020200000201000200020002000100020,
100100202020100100200200100100202020500008000000,
#GOGOSTART
11110111,
111111100000, //123
#GOGOEND
4,
0,
0,
0,
0000000011111111,
111111111111111111111111,
2, //130
#END

COURSE:Hard
LEVEL:8
BALLOON:6,8,8
SCOREINIT:1400
SCOREDIFF:0
#START
#GOGOSTART
3,
0000000020020020,
3,
0000000020020020,
30230230,
#MEASURE 3/4
230000, //6
#GOGOEND
#MEASURE 4/4
20020020,
02002000,
20020020,
02002020,
0,
0, //12
12221200,
2220002220001010,
12221200,
2220002220001010,
12221200,
2220002220001010,
12221200,
222000000222000000100000, //20
#GOGOSTART
12212210,
21121120,
12212210,
21121120,
12212210,
21121120,
12212210,
21121120, //28
#GOGOEND
10210210,
2010002220100010,
10210210,
2010002220100010,
10110110,
1010002220100010,
1010101011101110,
78, //36
#GOGOSTART
10201121,
1000200011102220,
1000200010010010,
200000002000000020000000100100100000200200200000,
10201121,
100200101010,
227000,
#GOGOEND
8, //44
#GOGOSTART
10201121,
1000200011102220,
1000200010010010,
200000002000000020000000100100100000200200200000,
1000200011102000,
1000200011102000,
24024023,
#GOGOEND
01400000, //52
#GOGOSTART
2010102000222020,
1001001010002000,
1001001020201020,
10010122,
1110200022202000,
1110200022202000,
1110202011102020,
1001001020020020, //60
1000201110020020,
1000201110020020,
1020102000111020,
1000200010010020,
10112112,
11211210,
12212212,
2010202010020020, //68
#GOGOEND
100222200222,
200200222200,
200222200222,
200200222200,
100222100222,
100222100100,
100111100111,
100200202020, //76
#GOGOSTART
111101200100,
111101200100,
111101200100,
111101200100,
#GOGOEND
100200102020,
100200102020,
1000201110002010,
100000000000200000100100100000002000000020000000, //84
#GOGOSTART
1020102010201110,
1002002010001110,
1020102010201110,
1020102010001110,
11121112,
1002002010101110,
1010111011101110,
500000000000000000000000000000000000000000000008,
#GOGOEND
0,
000000000222, //94
200222,
200222,
20000222,
200222,
12,
22,
12,
22, //102
#GOGOSTART
12212212,
2010020010200100,
#GOGOEND
21221221,
22122020,
#GOGOSTART
12212212,
2010020010200100,
#GOGOEND
500000000000000000000000000000000008000000000000,
7008, //110
#GOGOSTART
1000102010111020,
1000102010111010,
1000102010111020,
1000102010111010,
1000101010111010,
1000101010111010,
1010101110101011,
1010111011101110, //118
#GOGOEND
500000000000000008000000200000002000000020000000,
33,
0,
#GOGOSTART
11110111,
111111100000, //123
#GOGOEND
4,
0,
0,
0,
05,
000000000000000000000000000000000000000008000000,
2, //130
#END

COURSE:Normal
LEVEL:7
BALLOON:4,5,6,4
SCOREINIT:2020
SCOREDIFF:0
#START
#GOGOSTART
3,
0000000010010010,
3,
0000000010010010,
30130130,
#MEASURE 3/4
130000, //6
#GOGOEND
#MEASURE 4/4
20020020,
02002000,
20020020,
02002020,
0,
0, //12
11101100,
20020020,
11101200,
20020020,
11101100,
20020020,
11101200,
20020020, //20
#GOGOSTART
10201120,
10120120,
10201120,
10210210,
10201120,
10120120,
10201120,
10210210, //28
#GOGOEND
10110110,
11011001,
10110110,
11011001,
10110110,
11011001,
10101111,
78, //36
#GOGOSTART
10201120,
10201120,
1000200010010010,
200020002000100100200200,
10201120,
100200101010,
227000,
#GOGOEND
8, //44
#GOGOSTART
10201120,
10201120,
1000200010010010,
200020002000100100200200,
10201120,
10201120,
24024024,
#GOGOEND
01300000, //52
#GOGOSTART
10110120,
1001001010002000,
1001001020201010,
10010120,
11201120,
11201120,
10201120,
1001001020020020, //60
1000200010010010,
1000200010010010,
10110120,
1000200010010010,
10110110,
11011020,
10210210,
2010002010020020, //68
#GOGOEND
1202,
0202,
0202,
0202,
1212,
1211,
1111,
1, //76
#GOGOSTART
100101200000,
100101200000,
100101200000,
100101200000,
#GOGOEND
100200101010,
100200101010,
1212,
100200102020, //84
#GOGOSTART
10101011,
10101011,
10101011,
10101011,
10111011,
10111011,
11111111,
500000000000000000000000000000000000000000000008,
#GOGOEND
0,
0, //94
2,
2,
2,
22,
12,
22,
12,
22, //102
#GOGOSTART
10110110,
1010010010100100,
#GOGOEND
20220220,
22022020,
#GOGOSTART
10110110,
1010010010100100,
#GOGOEND
500000000000000000000000000000000008000000000000,
7008, //110
#GOGOSTART
10111011,
10111010,
10111011,
10111010,
10111110,
10111110,
11111110,
11111110, //118
#GOGOEND
500000000000000000000000000000000008000000000000,
33,
0,
#GOGOSTART
11110111,
78, //123
#GOGOEND
4,
0,
0,
0,
05,
000000000000000000000000000000000008000000000000,
2, //130
#END

COURSE:Easy
LEVEL:5
BALLOON:3,5,3
SCOREINIT:3970
SCOREDIFF:0
#START
#GOGOSTART
3,
0,
3,
0,
30030030,
#MEASURE 3/4
030000, //6
#GOGOEND
#MEASURE 4/4
2,
0,
2,
0,
0,
0, //12
1110,
2,
1110,
2,
1110,
2,
1110,
2, //20
#GOGOSTART
1110,
10010010,
1110,
10010010,
1110,
10010010,
1110,
10010010, //28
#GOGOEND
20020020,
02000000,
20020020,
02000000,
20020020,
02000000,
2222,
78, //36
#GOGOSTART
1110,
2,
1110,
2,
12,
12,
500000000000000000000000000000000000000000000008,
#GOGOEND
0, //44
#GOGOSTART
1110,
2,
1110,
2,
12,
12,
20020020,
#GOGOEND
0300, //52
#GOGOSTART
10010000,
10010000,
10010020,
10010000,
1210,
1210,
11,
1, //60
1210,
1210,
10010020,
1210,
10010010,
01000000,
10010010,
01000000, //68
#GOGOEND
0202,
0202,
0202,
0202,
1202,
1201,
1111,
1, //76
#GOGOSTART
1120,
1120,
1120,
1120,
#GOGOEND
11,
1120,
11,
1120, //84
#GOGOSTART
1110,
1110,
1111,
1110,
1111,
1110,
1111,
500000000000000000000000000000000000000000000008,
#GOGOEND
0,
0, //94
2,
2,
2,
22,
1,
1,
1,
1, //102
#GOGOSTART
10010010,
01000000,
#GOGOEND
20020020,
02000000,
#GOGOSTART
10010010,
01000000,
#GOGOEND
500000000000000000000000000000000008000000000000,
7008, //110
#GOGOSTART
1111,
1110,
1111,
1110,
1112,
1110,
1112,
1110, //118
#GOGOEND
500000000000000000000000000000000008000000000000,
33,
0,
#GOGOSTART
10010010,
78, //123
#GOGOEND
4,
0,
0,
0,
05,
000000000000000000000000000000000008000000000000,
2, //130
#END
