//TJADB Project
TITLE:Operate Me
TITLEJA:オペレート・ミー
SUBTITLE:--Chroma
SUBTITLEJA:黒魔
BPM:98
WAVE:Operate Me.ogg
OFFSET:-0.280
DEMOSTART:42.643

COURSE:Edit
LEVEL:10
BALLOON:6,50
SCOREINIT:750
SCOREDIFF:0
#START
12221222,
12221221,
12221212,
#MEASURE 8/4
100000200000200000200000200000000000000000000000000000000000000000000000022200000000000000000000, //4
#MEASURE 4/4
#BPMCHANGE 255
1111111111111111,
2220102220102220,
1111111111111111,
200200200000100000200200101000100000100000000000,
1111111111111111,
2220102220102220,
1111111111111111,
200200200000100000200200100000000000202020200000, //12
1110111011102010,
1110111010201020,
1011101020101110,
2011102010222000,
220200100220200100220200,
100000202000200000100000200200200200100100100100,
#MEASURE 5/4
500080000500080000600080
#BPMCHANGE 63.75
#SCROLL 4
000000, //19
#MEASURE 4/4
#BPMCHANGE 255
#SCROLL 1
30000222,
10220000,
10000222,
1122,
10201222,
11221222,
11221221,
22212020, //27
10210020,
500000000000000008000000200000000000000000000000,
10210020,
500000000000000008000000200000000000000000000000,
12211212,
2010102012211210,
300000002012,
201010200700000000000800, //35
3000202011202020,
1011202011102020,
1010202011202020,
1011202011201120,
1010202011202020,
1110202011102020,
1011202011202010,
2020221040122212, //43
1000102210221020,
1022102211112000,
1000102210221020,
1022102220002222,
122222122222,
122222122122,
111111111111,
#MEASURE 2/4
#BPMCHANGE 127.5
#SCROLL 2
14, //51
#MEASURE 4/4
#BPMCHANGE 255
#SCROLL 1
1112221112220111,
2221011122212000,
1111221111220111,
1221011112212000,
100100101000200000100100101000200100000100101000,
200000100200101000200000200100200100200000000000,
#BPMCHANGE 127.5
#SCROLL 2
300000000000000000111111200000000000000000000000, //58
#MEASURE 8/4
#BPMCHANGE 255
#SCROLL 0.5
10000010000010102222222210001010,
100000000000000000100000200020002000100010001000200000200000000000200000000000000000200200200200,
10000010000010102222222210001010,
100000000000000000100000200200200200100100100100200020002000200010001000100000000000200000200000,
100020002000200000100000200020002000100000100000200200200200200200200200100000200000100000100000,
100000200000200000100000200020002000100010001000200000200100100000200000100000100000200200200200,
100020002000200000100000200020002000100000100000200200200200200200200200100000200000100000100000,
100000200000200000100000200200200200100100100100200020002000100000200000500000000008000000000000, //66
#MEASURE 4/4
#SCROLL 1
1000102210201120,
1222102011221020,
#MEASURE 6/4
#BPMCHANGE 382.5
#SCROLL 0.67
314231,
414232,
#MEASURE 12/4
#BPMCHANGE 127.5
#SCROLL 2
400000000000011100000000000000110000000000000000700000000000000000000000000000000000000000000000000000000000000000000800
#SCROLL 1
200200000000000000000000, //71
#MEASURE 4/4
1112212211212212,
1112212211212212,
1112212222112122,
1112212122221222,
1122112212112122,
1122112212112122,
1111222211112222,
100200200100200200100200202020101010202020101010,
#MEASURE 6/4
202010202010201010201010220000000000000000000000
#SCROLL 4
400000000000400000000000, //80
#MEASURE 1/4
#BPMCHANGE 63.75
#SCROLL 8
1
#SCROLL 7.8
1
#SCROLL 7.6
1
#SCROLL 7.41
1
#SCROLL 7.22
1
#SCROLL 7.04
1
#SCROLL 6.86
1
#SCROLL 6.68
1
#SCROLL 6.51
1
#SCROLL 6.35
1
#SCROLL 6.19
1
#SCROLL 6.03
1
#SCROLL 5.88
1
#SCROLL 5.73
1
#SCROLL 5.58
1
#SCROLL 5.44
1, //81
#SCROLL 5.31
1
#SCROLL 5.17
1
#SCROLL 5.04
1
#SCROLL 4.91
1
#SCROLL 4.79
1
#SCROLL 4.67
1
#SCROLL 4.55
1
#SCROLL 4.43
1
#SCROLL 4.32
1
#SCROLL 4.21
1
#SCROLL 4.1
1
#SCROLL 4
1
#SCROLL 3.9
1
#SCROLL 3.8
1
#SCROLL 3.7
1
#SCROLL 3.61
1, //82
#SCROLL 3.52
1
#SCROLL 3.43
1
#SCROLL 3.34
1
#SCROLL 3.26
1
#SCROLL 3.17
1
#SCROLL 3.09
1
#SCROLL 3.02
1
#SCROLL 2.94
1
#SCROLL 2.86
1
#SCROLL 2.79
1
#SCROLL 2.72
1
#SCROLL 2.65
1
#SCROLL 2.59
1
#SCROLL 2.52
1
#SCROLL 2.46
1
#SCROLL 2.39
1, //83
#MEASURE 5/16
#BPMCHANGE 95.63
#SCROLL 1.56
1
#SCROLL 1.52
1
#SCROLL 1.48
1
#SCROLL 1.44
1
#SCROLL 1.4
1
#SCROLL 1.37
1
#BPMCHANGE 63.75
#SCROLL 2
2000, //84
#MEASURE 4/4
#BPMCHANGE 255
#SCROLL 1
#GOGOSTART
3000122210201120,
1020122210201120,
2011112011112020,
#MEASURE 13/16
111222111211
#GOGOEND
#BPMCHANGE 63.75
#SCROLL 4
2,
#MEASURE 4/4
#BPMCHANGE 255
#SCROLL 1
#GOGOSTART
311422311411,
422311422322,
311422311411,
422311422322, //92
#MEASURE 6/4
#BPMCHANGE 382.5
#SCROLL 0.67
314231423142,
314141423232,
#MEASURE 4/4
#BPMCHANGE 255
#SCROLL 1
101010100000200200101010100000200200100100100100,
2000000020101111,
2010111120101111,
2111211121112111,
#GOGOEND
#MEASURE 5/8
100100222220
#BPMCHANGE 63.75
#SCROLL 4
000, //99
#MEASURE 4/4
#BPMCHANGE 127.5
#SCROLL 2
32221222,
12221221,
12221212,
100000000000200000000000200000000000200000200200200000002000000020000000200000002000200020002000,
101210202220101210202220,
101210202220101210202120,
101210202220101210101210,
#MEASURE 8/4
#BPMCHANGE 255
#SCROLL 1
100000200100200000100000200100200000200000200200200000200100100200200000201020100100200000000000, //107
#MEASURE 4/4
#SCROLL 1.03
#GOGOSTART
100100100100100100100100100100100100500008000000,
#SCROLL 1.05
200200200200200200200200200200200200500008000000,
#SCROLL 1.08
100100100100100100100100100100100100500008000000,
#SCROLL 1.1
200200200200200200200200200200200200500008000000, //111
#MEASURE 2/4
#SCROLL 1.13
100100100100500008000000,
#SCROLL 1.16
200200200200500008000000,
#MEASURE 1/4
#SCROLL 1.19
111100,
#SCROLL 1.22
222200,
#SCROLL 1.25
112200,
#GOGOEND
#MEASURE 1/16
#BPMCHANGE 63.75
#SCROLL 8
0, //117
#MEASURE 15/64
#BPMCHANGE 510
#SCROLL 1
#GOGOSTART
100000001000000,
#MEASURE 1/64
#SCROLL 0.98
0,
#BARLINEOFF
#MEASURE 15/64
#SCROLL 1
100000001000000,
#BARLINEON
#MEASURE 1/64
#SCROLL 0.96
0,
#BARLINEOFF
#MEASURE 15/64
#SCROLL 1
100000001000000,
#BARLINEON
#MEASURE 1/64
#SCROLL 0.94
0,
#BARLINEOFF
#MEASURE 15/64
#SCROLL 1
100000001000000,
#BARLINEON
#MEASURE 1/64
#SCROLL 0.92
0,
#BARLINEOFF
#MEASURE 15/64
#SCROLL 1
100000001000000,
#BARLINEON
#MEASURE 1/64
#SCROLL 0.9
0,
#BARLINEOFF
#MEASURE 15/64
#SCROLL 1
100000001000000,
#BARLINEON
#MEASURE 1/64
#SCROLL 0.88
0,
#BARLINEOFF
#MEASURE 15/64
#SCROLL 1
100000001000000,
#BARLINEON
#MEASURE 1/64
#SCROLL 0.86
0,
#BARLINEOFF
#MEASURE 15/64
#SCROLL 1
100000001000000,
#BARLINEON
#MEASURE 1/64
#SCROLL 0.84
0,
#BARLINEOFF
#MEASURE 15/64
#SCROLL 1
100000001000000,
#BARLINEON
#MEASURE 1/64
#SCROLL 0.82
0,
#BARLINEOFF
#MEASURE 15/64
#SCROLL 1
100000001000000,
#BARLINEON
#MEASURE 1/64
#SCROLL 0.81
0,
#BARLINEOFF
#MEASURE 15/64
#SCROLL 1
100000001000000,
#BARLINEON
#MEASURE 1/64
#SCROLL 0.79
0,
#BARLINEOFF
#MEASURE 15/64
#SCROLL 1
100000001000000,
#BARLINEON
#MEASURE 1/64
#SCROLL 0.77
0,
#BARLINEOFF
#MEASURE 15/64
#SCROLL 1
100000001000000,
#BARLINEON
#MEASURE 1/64
#SCROLL 0.75
0,
#BARLINEOFF
#MEASURE 15/64
#SCROLL 1
100000001000000,
#BARLINEON
#MEASURE 1/64
#SCROLL 0.74
0,
#BARLINEOFF
#MEASURE 15/64
#SCROLL 1
100000001000000,
#BARLINEON
#MEASURE 1/64
#SCROLL 0.72
0,
#BARLINEOFF
#MEASURE 15/64
#SCROLL 1
100000001000000,
#BARLINEON
#MEASURE 1/64
#SCROLL 0.71
0,
#BARLINEOFF
#MEASURE 15/64
#SCROLL 1
100000001000000,
#BARLINEON
#MEASURE 1/64
#SCROLL 0.69
0,
#BARLINEOFF
#MEASURE 15/64
#SCROLL 1
100000001000000,
#BARLINEON
#MEASURE 1/64
#SCROLL 0.68
0,
#BARLINEOFF
#MEASURE 15/64
#SCROLL 1
100000001000000,
#BARLINEON
#MEASURE 1/64
#SCROLL 0.66
0,
#BARLINEOFF
#MEASURE 15/64
#SCROLL 1
100000001000000,
#BARLINEON
#MEASURE 1/64
#SCROLL 0.65
0,
#BARLINEOFF
#MEASURE 15/64
#SCROLL 1
100000001000000,
#BARLINEON
#MEASURE 1/64
#SCROLL 0.63
0,
#BARLINEOFF
#MEASURE 15/64
#SCROLL 1
100000001000000,
#BARLINEON
#MEASURE 1/64
#SCROLL 0.62
0,
#BARLINEOFF
#MEASURE 15/64
#SCROLL 1
100000001000000,
#BARLINEON
#MEASURE 1/64
#SCROLL 0.61
0,
#BARLINEOFF
#MEASURE 15/64
#SCROLL 1
100000001000000,
#BARLINEON
#MEASURE 1/64
#SCROLL 0.59
0,
#BARLINEOFF
#MEASURE 15/64
#SCROLL 1
100000001000000,
#BARLINEON
#MEASURE 1/64
#SCROLL 0.58
0,
#BARLINEOFF
#MEASURE 15/64
#SCROLL 1
100000001000000,
#BARLINEON
#MEASURE 1/64
#SCROLL 0.57
0,
#BARLINEOFF
#MEASURE 15/64
#SCROLL 1
100000001000000,
#BARLINEON
#MEASURE 1/64
#SCROLL 0.56
0,
#BARLINEOFF
#MEASURE 15/64
#SCROLL 1
100000001000000,
#BARLINEON
#MEASURE 1/64
#SCROLL 0.55
0,
#BARLINEOFF
#MEASURE 15/64
#SCROLL 1
100000001000000,
#BARLINEON
#MEASURE 1/64
#SCROLL 0.53
0,
#BARLINEOFF
#MEASURE 15/64
#SCROLL 1
100000001000000,
#BARLINEON
#MEASURE 1/64
#SCROLL 0.52
0,
#BARLINEOFF
#MEASURE 15/64
#SCROLL 1
100000001000000,
#BARLINEON
#MEASURE 1/64
#SCROLL 0.51
0,
#BARLINEOFF
#MEASURE 1/4
#SCROLL 1
11,
#GOGOEND
#MEASURE 4/4
#BPMCHANGE 127.5
#SCROLL 2
221000000000000000000000000000000000000000000000, //181
#END

COURSE:Oni
LEVEL:9
BALLOON:12,31,39
SCOREINIT:1370
SCOREDIFF:0
#START
12221222,
12221221,
12221212,
#MEASURE 8/4
10202020200000000000000004000000, //4
#MEASURE 4/4
#BPMCHANGE 255
3,
2220002220002220,
1,
2220002210201000,
3,
2220002220002220,
1,
200200200000000000200200100000000000200020002000, //12
11221222,
11221222,
11221222,
1010202011102000,
1120201120201120,
2011202011221010,
#MEASURE 5/4
40040040
#BPMCHANGE 63.75
#SCROLL 4
00, //19
#MEASURE 4/4
#BPMCHANGE 255
#SCROLL 1
30000222,
20220000,
10000222,
2222,
12,
22,
10220000,
0022, //27
10020020,
22,
10020020,
22,
11221222,
1010202011102220,
300000000000000000000000000000070000000000000000,
0008, //35
30201222,
10221020,
10201222,
1211,
10201120,
11221020,
10221020,
1020111020002220, //43
30121020,
1020102011112000,
10121020,
1020102010002222,
100111200222,
100111222100,
111111111111,
#MEASURE 2/4
#BPMCHANGE 127.5
#SCROLL 2
14, //51
#MEASURE 4/4
#BPMCHANGE 255
#SCROLL 1
1110201110200011,
1020001110102000,
1110201110200011,
1020001110202000,
1011201011200010,
1120001011202000,
#BPMCHANGE 127.5
#SCROLL 2
300000000111200000000000, //58
#MEASURE 8/4
#BPMCHANGE 255
#SCROLL 0.5
1001001120002011,
1001201022010022,
1001001120002011,
100000000100200000100000202020202020100000200200,
1001001120002011,
1001201022010022,
1001001120002011,
100000000100200000100000202020100000200000000000, //66
#MEASURE 4/4
#SCROLL 1
10101022,
1020102011101020,
#MEASURE 6/4
#BPMCHANGE 382.5
#SCROLL 0.67
313131,
424242,
#MEASURE 12/4
#BPMCHANGE 127.5
#SCROLL 2
400000020000000200000000700000000000000000000000000000000800
#SCROLL 1
400000000000, //71
#MEASURE 4/4
1002200010202020,
1002200010202020,
1002200000101020,
100000000200200000200000500000000000000008000000,
12221212,
12221212,
1212,
1002002050000000,
#MEASURE 6/4
000000000000000008000000200000000000000000000000
#SCROLL 4
400000000000400000000000, //80
#MEASURE 1/4
#BPMCHANGE 63.75
#SCROLL 8
7,
#SCROLL 5.31
0,
#SCROLL 3.52
0,
#MEASURE 5/16
#BPMCHANGE 95.63
#SCROLL 1.56
000
#BPMCHANGE 63.75
80, //84
#MEASURE 4/4
#BPMCHANGE 255
#SCROLL 1
#GOGOSTART
3000112010221020,
1000112010221020,
2011102011102020,
#MEASURE 13/16
600000000000000000000000000000000008
#GOGOEND
#BPMCHANGE 63.75
#SCROLL 4
000,
#MEASURE 4/4
#BPMCHANGE 255
#SCROLL 1
#GOGOSTART
111211211200,
222122122100,
111211211200,
222122122100, //92
#MEASURE 6/4
#BPMCHANGE 382.5
#SCROLL 0.67
112120221210,
112120221210,
#MEASURE 4/4
#BPMCHANGE 255
#SCROLL 1
4000112000112000,
30002111,
21112111,
600000000000000000000000000000000000000000000008,
#GOGOEND
#MEASURE 5/8
00002220
#BPMCHANGE 63.75
#SCROLL 4
00, //99
#MEASURE 4/4
#BPMCHANGE 127.5
#SCROLL 2
32220222,
02220220,
02220202,
02222000,
12221222,
12221221,
12221212,
#MEASURE 8/4
#BPMCHANGE 255
#SCROLL 1
10002020202020202220222022112000, //107
#MEASURE 4/4
#SCROLL 1.03
#GOGOSTART
3000111110101010,
#SCROLL 1.05
4000222220202020,
#SCROLL 1.08
3000111110101010,
#SCROLL 1.1
4000222220202020, //111
#MEASURE 2/4
#SCROLL 1.13
30001110,
#SCROLL 1.16
40002220,
#MEASURE 1/4
#SCROLL 1.19
1110,
#SCROLL 1.22
2220,
#SCROLL 1.25
1212,
#GOGOEND
#MEASURE 1/16
#BPMCHANGE 63.75
#SCROLL 8
0, //117
#MEASURE 15/64
#BPMCHANGE 510
#SCROLL 1
#GOGOSTART
600000008,
#MEASURE 1/64
#SCROLL 0.98
0,
#BARLINEOFF
#MEASURE 15/64
#SCROLL 1
600000008,
#BARLINEON
#MEASURE 1/64
#SCROLL 0.96
0,
#BARLINEOFF
#MEASURE 15/64
#SCROLL 1
600000008,
#BARLINEON
#MEASURE 1/64
#SCROLL 0.94
0,
#BARLINEOFF
#MEASURE 15/64
#SCROLL 1
600000008,
#BARLINEON
#MEASURE 1/64
#SCROLL 0.92
0,
#BARLINEOFF
#MEASURE 15/64
#SCROLL 1
600000008,
#BARLINEON
#MEASURE 1/64
#SCROLL 0.9
0,
#BARLINEOFF
#MEASURE 15/64
#SCROLL 1
600000008,
#BARLINEON
#MEASURE 1/64
#SCROLL 0.88
0,
#BARLINEOFF
#MEASURE 15/64
#SCROLL 1
600000008,
#BARLINEON
#MEASURE 1/64
#SCROLL 0.86
0,
#BARLINEOFF
#MEASURE 15/64
#SCROLL 1
600000008,
#BARLINEON
#MEASURE 1/64
#SCROLL 0.84
0,
#BARLINEOFF
#MEASURE 15/64
#SCROLL 1
600000008,
#BARLINEON
#MEASURE 1/64
#SCROLL 0.82
0,
#BARLINEOFF
#MEASURE 15/64
#SCROLL 1
600000008,
#BARLINEON
#MEASURE 1/64
#SCROLL 0.81
0,
#BARLINEOFF
#MEASURE 15/64
#SCROLL 1
600000008,
#BARLINEON
#MEASURE 1/64
#SCROLL 0.79
0,
#BARLINEOFF
#MEASURE 15/64
#SCROLL 1
600000008,
#BARLINEON
#MEASURE 1/64
#SCROLL 0.77
0,
#BARLINEOFF
#MEASURE 15/64
#SCROLL 1
600000008,
#BARLINEON
#MEASURE 1/64
#SCROLL 0.75
0,
#BARLINEOFF
#MEASURE 15/64
#SCROLL 1
600000008,
#BARLINEON
#MEASURE 1/64
#SCROLL 0.74
0,
#BARLINEOFF
#MEASURE 15/64
#SCROLL 1
600000008,
#BARLINEON
#MEASURE 1/64
#SCROLL 0.72
0,
#BARLINEOFF
#MEASURE 15/64
#SCROLL 1
600000008,
#BARLINEON
#MEASURE 1/64
#SCROLL 0.71
0,
#BARLINEOFF
#MEASURE 15/64
#SCROLL 1
600000008,
#BARLINEON
#MEASURE 1/64
#SCROLL 0.69
0,
#BARLINEOFF
#MEASURE 15/64
#SCROLL 1
600000008,
#BARLINEON
#MEASURE 1/64
#SCROLL 0.68
0,
#BARLINEOFF
#MEASURE 15/64
#SCROLL 1
600000008,
#BARLINEON
#MEASURE 1/64
#SCROLL 0.66
0,
#BARLINEOFF
#MEASURE 15/64
#SCROLL 1
600000008,
#BARLINEON
#MEASURE 1/64
#SCROLL 0.65
0,
#BARLINEOFF
#MEASURE 15/64
#SCROLL 1
600000008,
#BARLINEON
#MEASURE 1/64
#SCROLL 0.63
0,
#BARLINEOFF
#MEASURE 15/64
#SCROLL 1
600000008,
#BARLINEON
#MEASURE 1/64
#SCROLL 0.62
0,
#BARLINEOFF
#MEASURE 15/64
#SCROLL 1
600000008,
#BARLINEON
#MEASURE 1/64
#SCROLL 0.61
0,
#BARLINEOFF
#MEASURE 15/64
#SCROLL 1
600000008,
#BARLINEON
#MEASURE 1/64
#SCROLL 0.59
0,
#BARLINEOFF
#MEASURE 15/64
#SCROLL 1
600000008,
#BARLINEON
#MEASURE 1/64
#SCROLL 0.58
0,
#BARLINEOFF
#MEASURE 15/64
#SCROLL 1
600000008,
#BARLINEON
#MEASURE 1/64
#SCROLL 0.57
0,
#BARLINEOFF
#MEASURE 15/64
#SCROLL 1
600000008,
#BARLINEON
#MEASURE 1/64
#SCROLL 0.56
0,
#BARLINEOFF
#MEASURE 15/64
#SCROLL 1
600000008,
#BARLINEON
#MEASURE 1/64
#SCROLL 0.55
0,
#BARLINEOFF
#MEASURE 15/64
#SCROLL 1
600000008,
#BARLINEON
#MEASURE 1/64
#SCROLL 0.53
0,
#BARLINEOFF
#MEASURE 15/64
#SCROLL 1
600000008,
#BARLINEON
#MEASURE 1/64
#SCROLL 0.52
0,
#BARLINEOFF
#MEASURE 15/64
#SCROLL 1
600000008,
#BARLINEON
#MEASURE 1/64
#SCROLL 0.51
0,
#BARLINEOFF
#MEASURE 1/4
#SCROLL 1
600000000008,
#GOGOEND
#MEASURE 4/4
#BPMCHANGE 127.5
#SCROLL 2
0, //181
#END

COURSE:Hard
LEVEL:7
BALLOON:16,28,22,17
SCOREINIT:2360
SCOREDIFF:0
#START
12221222,
12221220,
12221212,
#MEASURE 8/4
1222200000000000, //4
#MEASURE 4/4
#BPMCHANGE 255
3,
22022022,
1,
22021000,
3,
22022022,
1,
22021000, //12
1112,
1122,
1222,
1120,
11011011,
01101110,
#MEASURE 5/4
40040040
#BPMCHANGE 63.75
#SCROLL 4
00, //19
#MEASURE 4/4
#BPMCHANGE 255
#SCROLL 1
30000222,
20220000,
10000222,
2222,
12,
22,
10220000,
0022, //27
10020020,
22,
10020020,
22,
7,
8,
3,
0, //35
30001222,
10221000,
10001222,
1211,
1012,
1212,
10110020,
11102000, //43
30121010,
1110,
10121010,
1120,
11,
11,
500000000000000000000000000000000000000000000008,
#MEASURE 2/4
#BPMCHANGE 127.5
#SCROLL 2
04, //51
#MEASURE 4/4
#BPMCHANGE 255
#SCROLL 1
10210201,
02010220,
10210201,
02010220,
10210201,
02010220,
#BPMCHANGE 127.5
#SCROLL 2
32, //58
#MEASURE 8/4
#BPMCHANGE 255
#SCROLL 0.5
1000001120002000,
10102002,
1000001120002000,
10201012,
1000001120002000,
10102002,
1000001120002000,
10201120, //66
#MEASURE 4/4
#SCROLL 1
10101022,
1122,
#MEASURE 6/4
#BPMCHANGE 382.5
#SCROLL 0.67
500000000000000000000000000000080000,
600000000000000000000000000000000000000000000000000000000000000000000008,
#MEASURE 12/4
#BPMCHANGE 127.5
#SCROLL 2
000000020000000200000000700000000000000000000000000000000000
#SCROLL 1
800000000000, //71
#MEASURE 4/4
2002200020202020,
2002200020202020,
2002200000202020,
2002202020000000,
22202220,
22202220,
2222,
2002002050000000,
#MEASURE 6/4
000000000000000000000008000000000000000000000000
#SCROLL 4
400000000000400000000000, //80
#MEASURE 1/4
#BPMCHANGE 63.75
#SCROLL 8
9,
#SCROLL 5.31
0,
#SCROLL 3.52
000000090000,
#MEASURE 5/16
#BPMCHANGE 95.63
#SCROLL 1.56
000
#BPMCHANGE 63.75
80, //84
#MEASURE 4/4
#BPMCHANGE 255
#SCROLL 1
#GOGOSTART
10121010,
1212,
30021020,
#MEASURE 13/16
600000000000000000000000000000000008
#GOGOEND
#BPMCHANGE 63.75
#SCROLL 4
000,
#MEASURE 4/4
#BPMCHANGE 255
#SCROLL 1
#GOGOSTART
1111,
2121,
1111,
2121, //92
#MEASURE 6/4
#BPMCHANGE 382.5
#SCROLL 0.67
33,
44,
#MEASURE 4/4
#BPMCHANGE 255
#SCROLL 1
30030030,
7,
8,
600000000000000000000000000000000000000000000008,
#GOGOEND
#MEASURE 5/8
0000
#BPMCHANGE 63.75
#SCROLL 4
0, //99
#MEASURE 4/4
#BPMCHANGE 127.5
#SCROLL 2
31,
11,
12221212,
12222000,
12221222,
12221220,
12221212,
#MEASURE 8/4
#BPMCHANGE 255
#SCROLL 1
1022222022224000, //107
#MEASURE 4/4
#SCROLL 1.03
#GOGOSTART
30222220,
#SCROLL 1.05
30222222,
#SCROLL 1.08
30222220,
#SCROLL 1.1
30222222, //111
#MEASURE 2/4
#SCROLL 1.13
3022,
#SCROLL 1.16
3022,
#MEASURE 1/4
#SCROLL 1.19
3,
#SCROLL 1.22
3,
#SCROLL 1.25
31,
#GOGOEND
#MEASURE 1/16
#BPMCHANGE 63.75
#SCROLL 8
0, //117
#MEASURE 15/64
#BPMCHANGE 510
#SCROLL 1
#GOGOSTART
600000008,
#MEASURE 1/64
#SCROLL 0.98
0,
#BARLINEOFF
#MEASURE 15/64
#SCROLL 1
600000008,
#BARLINEON
#MEASURE 1/64
#SCROLL 0.96
0,
#BARLINEOFF
#MEASURE 15/64
#SCROLL 1
600000008,
#BARLINEON
#MEASURE 1/64
#SCROLL 0.94
0,
#BARLINEOFF
#MEASURE 15/64
#SCROLL 1
600000008,
#BARLINEON
#MEASURE 1/64
#SCROLL 0.92
0,
#BARLINEOFF
#MEASURE 15/64
#SCROLL 1
600000008,
#BARLINEON
#MEASURE 1/64
#SCROLL 0.9
0,
#BARLINEOFF
#MEASURE 15/64
#SCROLL 1
600000008,
#BARLINEON
#MEASURE 1/64
#SCROLL 0.88
0,
#BARLINEOFF
#MEASURE 15/64
#SCROLL 1
600000008,
#BARLINEON
#MEASURE 1/64
#SCROLL 0.86
0,
#BARLINEOFF
#MEASURE 15/64
#SCROLL 1
600000008,
#BARLINEON
#MEASURE 1/64
#SCROLL 0.84
0,
#BARLINEOFF
#MEASURE 15/64
#SCROLL 1
600000008,
#BARLINEON
#MEASURE 1/64
#SCROLL 0.82
0,
#BARLINEOFF
#MEASURE 15/64
#SCROLL 1
600000008,
#BARLINEON
#MEASURE 1/64
#SCROLL 0.81
0,
#BARLINEOFF
#MEASURE 15/64
#SCROLL 1
600000008,
#BARLINEON
#MEASURE 1/64
#SCROLL 0.79
0,
#BARLINEOFF
#MEASURE 15/64
#SCROLL 1
600000008,
#BARLINEON
#MEASURE 1/64
#SCROLL 0.77
0,
#BARLINEOFF
#MEASURE 15/64
#SCROLL 1
600000008,
#BARLINEON
#MEASURE 1/64
#SCROLL 0.75
0,
#BARLINEOFF
#MEASURE 15/64
#SCROLL 1
600000008,
#BARLINEON
#MEASURE 1/64
#SCROLL 0.74
0,
#BARLINEOFF
#MEASURE 15/64
#SCROLL 1
600000008,
#BARLINEON
#MEASURE 1/64
#SCROLL 0.72
0,
#BARLINEOFF
#MEASURE 15/64
#SCROLL 1
600000008,
#BARLINEON
#MEASURE 1/64
#SCROLL 0.71
0,
#BARLINEOFF
#MEASURE 15/64
#SCROLL 1
600000008,
#BARLINEON
#MEASURE 1/64
#SCROLL 0.69
0,
#BARLINEOFF
#MEASURE 15/64
#SCROLL 1
600000008,
#BARLINEON
#MEASURE 1/64
#SCROLL 0.68
0,
#BARLINEOFF
#MEASURE 15/64
#SCROLL 1
600000008,
#BARLINEON
#MEASURE 1/64
#SCROLL 0.66
0,
#BARLINEOFF
#MEASURE 15/64
#SCROLL 1
600000008,
#BARLINEON
#MEASURE 1/64
#SCROLL 0.65
0,
#BARLINEOFF
#MEASURE 15/64
#SCROLL 1
600000008,
#BARLINEON
#MEASURE 1/64
#SCROLL 0.63
0,
#BARLINEOFF
#MEASURE 15/64
#SCROLL 1
600000008,
#BARLINEON
#MEASURE 1/64
#SCROLL 0.62
0,
#BARLINEOFF
#MEASURE 15/64
#SCROLL 1
600000008,
#BARLINEON
#MEASURE 1/64
#SCROLL 0.61
0,
#BARLINEOFF
#MEASURE 15/64
#SCROLL 1
600000008,
#BARLINEON
#MEASURE 1/64
#SCROLL 0.59
0,
#BARLINEOFF
#MEASURE 15/64
#SCROLL 1
600000008,
#BARLINEON
#MEASURE 1/64
#SCROLL 0.58
0,
#BARLINEOFF
#MEASURE 15/64
#SCROLL 1
600000008,
#BARLINEON
#MEASURE 1/64
#SCROLL 0.57
0,
#BARLINEOFF
#MEASURE 15/64
#SCROLL 1
600000008,
#BARLINEON
#MEASURE 1/64
#SCROLL 0.56
0,
#BARLINEOFF
#MEASURE 15/64
#SCROLL 1
600000008,
#BARLINEON
#MEASURE 1/64
#SCROLL 0.55
0,
#BARLINEOFF
#MEASURE 15/64
#SCROLL 1
600000008,
#BARLINEON
#MEASURE 1/64
#SCROLL 0.53
0,
#BARLINEOFF
#MEASURE 15/64
#SCROLL 1
600000008,
#BARLINEON
#MEASURE 1/64
#SCROLL 0.52
0,
#BARLINEOFF
#MEASURE 15/64
#SCROLL 1
600000008,
#BARLINEON
#MEASURE 1/64
#SCROLL 0.51
0,
#BARLINEOFF
#MEASURE 1/4
#SCROLL 1
600000000008,
#GOGOEND
#MEASURE 4/4
#BPMCHANGE 127.5
#SCROLL 2
0, //181
#END

COURSE:Normal
LEVEL:7
BALLOON:12,17,14,10
SCOREINIT:3550
SCOREDIFF:0
#START
1212,
1210,
1211,
#MEASURE 8/4
12200000, //4
#MEASURE 4/4
#BPMCHANGE 255
3,
20020020,
1,
20021000,
3,
20020020,
1,
20021000, //12
1110,
1110,
1110,
1120,
30030030,
03003000,
#MEASURE 5/4
40040040
#BPMCHANGE 63.75
#SCROLL 4
00, //19
#MEASURE 4/4
#BPMCHANGE 255
#SCROLL 1
3,
2,
1,
2022,
11,
22,
10110000,
0, //27
10010010,
12,
10010010,
12,
7,
8,
0,
0, //35
31,
20220000,
11,
2220,
11,
22,
10110000,
02, //43
30010010,
1120,
10010010,
1120,
11,
11,
500000000000000000000000000000000000000000000008,
#MEASURE 2/4
#BPMCHANGE 127.5
#SCROLL 2
0, //51
#MEASURE 4/4
#BPMCHANGE 255
#SCROLL 1
10010001,
00010020,
10010001,
00010020,
10010001,
00010020,
#BPMCHANGE 127.5
#SCROLL 2
3, //58
#MEASURE 8/4
#BPMCHANGE 255
#SCROLL 0.5
10011020,
1120,
10011020,
1210,
1000001110002000,
1120,
1000001110002000,
1210, //66
#MEASURE 4/4
#SCROLL 1
10000011,
12,
#MEASURE 6/4
#BPMCHANGE 382.5
#SCROLL 0.67
500000000000000000000000000000080000,
600000000000000000000000000000000000000000000000000000000000000000000008,
#MEASURE 12/4
#BPMCHANGE 127.5
#SCROLL 2
000000020000000200000000700000000000000000000000000000000000
#SCROLL 1
800000000000, //71
#MEASURE 4/4
20002220,
20002220,
20000220,
2002002020000000,
22202020,
22202020,
2222,
2002002050000000,
#MEASURE 6/4
000000000000000000000008000000000000000000000000
#SCROLL 4
400000000000400000000000, //80
#MEASURE 1/4
#BPMCHANGE 63.75
#SCROLL 8
9,
#SCROLL 5.31
0,
#SCROLL 3.52
000000090000,
#MEASURE 5/16
#BPMCHANGE 95.63
#SCROLL 1.56
000
#BPMCHANGE 63.75
80, //84
#MEASURE 4/4
#BPMCHANGE 255
#SCROLL 1
#GOGOSTART
10011000,
0122,
30011010,
#MEASURE 13/16
600000000000000000000000000000000008
#GOGOEND
#BPMCHANGE 63.75
#SCROLL 4
000,
#MEASURE 4/4
#BPMCHANGE 255
#SCROLL 1
#GOGOSTART
1111,
2220,
1111,
2220, //92
#MEASURE 6/4
#BPMCHANGE 382.5
#SCROLL 0.67
33,
44,
#MEASURE 4/4
#BPMCHANGE 255
#SCROLL 1
30030030,
7,
8,
600000000000000000000000000000000000000000000008,
#GOGOEND
#MEASURE 5/8
0000
#BPMCHANGE 63.75
#SCROLL 4
0, //99
#MEASURE 4/4
#BPMCHANGE 127.5
#SCROLL 2
3,
0,
1211,
20222000,
1212,
1212,
1211,
#MEASURE 8/4
#BPMCHANGE 255
#SCROLL 1
2000202022204000, //107
#MEASURE 4/4
#SCROLL 1.03
#GOGOSTART
3222,
#SCROLL 1.05
30202220,
#SCROLL 1.08
3222,
#SCROLL 1.1
30202220, //111
#MEASURE 2/4
#SCROLL 1.13
32,
#SCROLL 1.16
32,
#MEASURE 1/4
#SCROLL 1.19
3,
#SCROLL 1.22
3,
#SCROLL 1.25
3,
#GOGOEND
#MEASURE 1/16
#BPMCHANGE 63.75
#SCROLL 8
0, //117
#MEASURE 15/64
#BPMCHANGE 510
#SCROLL 1
#GOGOSTART
600000008,
#MEASURE 1/64
#SCROLL 0.98
0,
#BARLINEOFF
#MEASURE 15/64
#SCROLL 1
600000008,
#BARLINEON
#MEASURE 1/64
#SCROLL 0.96
0,
#BARLINEOFF
#MEASURE 15/64
#SCROLL 1
600000008,
#BARLINEON
#MEASURE 1/64
#SCROLL 0.94
0,
#BARLINEOFF
#MEASURE 15/64
#SCROLL 1
600000008,
#BARLINEON
#MEASURE 1/64
#SCROLL 0.92
0,
#BARLINEOFF
#MEASURE 15/64
#SCROLL 1
600000008,
#BARLINEON
#MEASURE 1/64
#SCROLL 0.9
0,
#BARLINEOFF
#MEASURE 15/64
#SCROLL 1
600000008,
#BARLINEON
#MEASURE 1/64
#SCROLL 0.88
0,
#BARLINEOFF
#MEASURE 15/64
#SCROLL 1
600000008,
#BARLINEON
#MEASURE 1/64
#SCROLL 0.86
0,
#BARLINEOFF
#MEASURE 15/64
#SCROLL 1
600000008,
#BARLINEON
#MEASURE 1/64
#SCROLL 0.84
0,
#BARLINEOFF
#MEASURE 15/64
#SCROLL 1
600000008,
#BARLINEON
#MEASURE 1/64
#SCROLL 0.82
0,
#BARLINEOFF
#MEASURE 15/64
#SCROLL 1
600000008,
#BARLINEON
#MEASURE 1/64
#SCROLL 0.81
0,
#BARLINEOFF
#MEASURE 15/64
#SCROLL 1
600000008,
#BARLINEON
#MEASURE 1/64
#SCROLL 0.79
0,
#BARLINEOFF
#MEASURE 15/64
#SCROLL 1
600000008,
#BARLINEON
#MEASURE 1/64
#SCROLL 0.77
0,
#BARLINEOFF
#MEASURE 15/64
#SCROLL 1
600000008,
#BARLINEON
#MEASURE 1/64
#SCROLL 0.75
0,
#BARLINEOFF
#MEASURE 15/64
#SCROLL 1
600000008,
#BARLINEON
#MEASURE 1/64
#SCROLL 0.74
0,
#BARLINEOFF
#MEASURE 15/64
#SCROLL 1
600000008,
#BARLINEON
#MEASURE 1/64
#SCROLL 0.72
0,
#BARLINEOFF
#MEASURE 15/64
#SCROLL 1
600000008,
#BARLINEON
#MEASURE 1/64
#SCROLL 0.71
0,
#BARLINEOFF
#MEASURE 15/64
#SCROLL 1
600000008,
#BARLINEON
#MEASURE 1/64
#SCROLL 0.69
0,
#BARLINEOFF
#MEASURE 15/64
#SCROLL 1
600000008,
#BARLINEON
#MEASURE 1/64
#SCROLL 0.68
0,
#BARLINEOFF
#MEASURE 15/64
#SCROLL 1
600000008,
#BARLINEON
#MEASURE 1/64
#SCROLL 0.66
0,
#BARLINEOFF
#MEASURE 15/64
#SCROLL 1
600000008,
#BARLINEON
#MEASURE 1/64
#SCROLL 0.65
0,
#BARLINEOFF
#MEASURE 15/64
#SCROLL 1
600000008,
#BARLINEON
#MEASURE 1/64
#SCROLL 0.63
0,
#BARLINEOFF
#MEASURE 15/64
#SCROLL 1
600000008,
#BARLINEON
#MEASURE 1/64
#SCROLL 0.62
0,
#BARLINEOFF
#MEASURE 15/64
#SCROLL 1
600000008,
#BARLINEON
#MEASURE 1/64
#SCROLL 0.61
0,
#BARLINEOFF
#MEASURE 15/64
#SCROLL 1
600000008,
#BARLINEON
#MEASURE 1/64
#SCROLL 0.59
0,
#BARLINEOFF
#MEASURE 15/64
#SCROLL 1
600000008,
#BARLINEON
#MEASURE 1/64
#SCROLL 0.58
0,
#BARLINEOFF
#MEASURE 15/64
#SCROLL 1
600000008,
#BARLINEON
#MEASURE 1/64
#SCROLL 0.57
0,
#BARLINEOFF
#MEASURE 15/64
#SCROLL 1
600000008,
#BARLINEON
#MEASURE 1/64
#SCROLL 0.56
0,
#BARLINEOFF
#MEASURE 15/64
#SCROLL 1
600000008,
#BARLINEON
#MEASURE 1/64
#SCROLL 0.55
0,
#BARLINEOFF
#MEASURE 15/64
#SCROLL 1
600000008,
#BARLINEON
#MEASURE 1/64
#SCROLL 0.53
0,
#BARLINEOFF
#MEASURE 15/64
#SCROLL 1
600000008,
#BARLINEON
#MEASURE 1/64
#SCROLL 0.52
0,
#BARLINEOFF
#MEASURE 15/64
#SCROLL 1
600000008,
#BARLINEON
#MEASURE 1/64
#SCROLL 0.51
0,
#BARLINEOFF
#MEASURE 1/4
#SCROLL 1
600000000008,
#GOGOEND
#MEASURE 4/4
#BPMCHANGE 127.5
#SCROLL 2
0, //181
#END

COURSE:Easy
LEVEL:5
BALLOON:10,14,12,8
SCOREINIT:5030
SCOREDIFF:0
#START
11,
11,
1011,
#MEASURE 8/4
12200000, //4
#MEASURE 4/4
#BPMCHANGE 255
3,
20020020,
1,
20020000,
3,
20020020,
1,
20020000, //12
11,
11,
11,
12,
30030030,
03003000,
#MEASURE 5/4
40040040
#BPMCHANGE 63.75
#SCROLL 4
00, //19
#MEASURE 4/4
#BPMCHANGE 255
#SCROLL 1
3,
2,
1,
22,
1,
2,
1,
0, //27
1,
22,
1,
22,
7,
8,
0,
0, //35
31,
2,
11,
2,
11,
22,
1,
0, //43
30010010,
1,
10010010,
1,
11,
11,
500000000000000000000000000000000000000000000008,
#MEASURE 2/4
#BPMCHANGE 127.5
#SCROLL 2
0, //51
#MEASURE 4/4
#BPMCHANGE 255
#SCROLL 1
10010001,
0,
10010001,
0,
10010001,
0,
#BPMCHANGE 127.5
#SCROLL 2
3, //58
#MEASURE 8/4
#BPMCHANGE 255
#SCROLL 0.5
1022,
1120,
1022,
1220,
1022,
1120,
1022,
1220, //66
#MEASURE 4/4
#SCROLL 1
1001,
12,
#MEASURE 6/4
#BPMCHANGE 382.5
#SCROLL 0.67
500000000000000000000000000000080000,
600000000000000000000000000000000000000000000000000000000000000000000008,
#MEASURE 12/4
#BPMCHANGE 127.5
#SCROLL 2
000000020000000200000000700000000000000000000000000000000000
#SCROLL 1
800000000000, //71
#MEASURE 4/4
2022,
2022,
2,
22,
2220,
2220,
2222,
2002002050000000,
#MEASURE 6/4
000000000000000000000008000000000000000000000000
#SCROLL 4
400000000000400000000000, //80
#MEASURE 1/4
#BPMCHANGE 63.75
#SCROLL 8
9,
#SCROLL 5.31
0,
#SCROLL 3.52
000000090000,
#MEASURE 5/16
#BPMCHANGE 95.63
#SCROLL 1.56
000
#BPMCHANGE 63.75
80, //84
#MEASURE 4/4
#BPMCHANGE 255
#SCROLL 1
#GOGOSTART
11,
0111,
30030030,
#MEASURE 13/16
600000000000000000000000000008000000
#GOGOEND
#BPMCHANGE 63.75
#SCROLL 4
000,
#MEASURE 4/4
#BPMCHANGE 255
#SCROLL 1
#GOGOSTART
1111,
12,
1111,
12, //92
#MEASURE 6/4
#BPMCHANGE 382.5
#SCROLL 0.67
33,
44,
#MEASURE 4/4
#BPMCHANGE 255
#SCROLL 1
30030030,
7,
8,
600000000000000000000000000000000000000000000008,
#GOGOEND
#MEASURE 5/8
0000
#BPMCHANGE 63.75
#SCROLL 4
0, //99
#MEASURE 4/4
#BPMCHANGE 127.5
#SCROLL 2
3,
0,
1011,
1220,
11,
11,
1011,
#MEASURE 8/4
#BPMCHANGE 255
#SCROLL 1
20222240, //107
#MEASURE 4/4
#SCROLL 1.03
#GOGOSTART
3,
#SCROLL 1.05
3,
#SCROLL 1.08
3,
#SCROLL 1.1
3, //111
#MEASURE 2/4
#SCROLL 1.13
3,
#SCROLL 1.16
3,
#MEASURE 1/4
#SCROLL 1.19
3,
#SCROLL 1.22
3,
#SCROLL 1.25
3,
#GOGOEND
#MEASURE 1/16
#BPMCHANGE 63.75
#SCROLL 8
0, //117
#MEASURE 15/64
#BPMCHANGE 510
#SCROLL 1
#GOGOSTART
600000008,
#MEASURE 1/64
#SCROLL 0.98
0,
#BARLINEOFF
#MEASURE 15/64
#SCROLL 1
600000008,
#BARLINEON
#MEASURE 1/64
#SCROLL 0.96
0,
#BARLINEOFF
#MEASURE 15/64
#SCROLL 1
600000008,
#BARLINEON
#MEASURE 1/64
#SCROLL 0.94
0,
#BARLINEOFF
#MEASURE 15/64
#SCROLL 1
600000008,
#BARLINEON
#MEASURE 1/64
#SCROLL 0.92
0,
#BARLINEOFF
#MEASURE 15/64
#SCROLL 1
600000008,
#BARLINEON
#MEASURE 1/64
#SCROLL 0.9
0,
#BARLINEOFF
#MEASURE 15/64
#SCROLL 1
600000008,
#BARLINEON
#MEASURE 1/64
#SCROLL 0.88
0,
#BARLINEOFF
#MEASURE 15/64
#SCROLL 1
600000008,
#BARLINEON
#MEASURE 1/64
#SCROLL 0.86
0,
#BARLINEOFF
#MEASURE 15/64
#SCROLL 1
600000008,
#BARLINEON
#MEASURE 1/64
#SCROLL 0.84
0,
#BARLINEOFF
#MEASURE 15/64
#SCROLL 1
600000008,
#BARLINEON
#MEASURE 1/64
#SCROLL 0.82
0,
#BARLINEOFF
#MEASURE 15/64
#SCROLL 1
600000008,
#BARLINEON
#MEASURE 1/64
#SCROLL 0.81
0,
#BARLINEOFF
#MEASURE 15/64
#SCROLL 1
600000008,
#BARLINEON
#MEASURE 1/64
#SCROLL 0.79
0,
#BARLINEOFF
#MEASURE 15/64
#SCROLL 1
600000008,
#BARLINEON
#MEASURE 1/64
#SCROLL 0.77
0,
#BARLINEOFF
#MEASURE 15/64
#SCROLL 1
600000008,
#BARLINEON
#MEASURE 1/64
#SCROLL 0.75
0,
#BARLINEOFF
#MEASURE 15/64
#SCROLL 1
600000008,
#BARLINEON
#MEASURE 1/64
#SCROLL 0.74
0,
#BARLINEOFF
#MEASURE 15/64
#SCROLL 1
600000008,
#BARLINEON
#MEASURE 1/64
#SCROLL 0.72
0,
#BARLINEOFF
#MEASURE 15/64
#SCROLL 1
600000008,
#BARLINEON
#MEASURE 1/64
#SCROLL 0.71
0,
#BARLINEOFF
#MEASURE 15/64
#SCROLL 1
600000008,
#BARLINEON
#MEASURE 1/64
#SCROLL 0.69
0,
#BARLINEOFF
#MEASURE 15/64
#SCROLL 1
600000008,
#BARLINEON
#MEASURE 1/64
#SCROLL 0.68
0,
#BARLINEOFF
#MEASURE 15/64
#SCROLL 1
600000008,
#BARLINEON
#MEASURE 1/64
#SCROLL 0.66
0,
#BARLINEOFF
#MEASURE 15/64
#SCROLL 1
600000008,
#BARLINEON
#MEASURE 1/64
#SCROLL 0.65
0,
#BARLINEOFF
#MEASURE 15/64
#SCROLL 1
600000008,
#BARLINEON
#MEASURE 1/64
#SCROLL 0.63
0,
#BARLINEOFF
#MEASURE 15/64
#SCROLL 1
600000008,
#BARLINEON
#MEASURE 1/64
#SCROLL 0.62
0,
#BARLINEOFF
#MEASURE 15/64
#SCROLL 1
600000008,
#BARLINEON
#MEASURE 1/64
#SCROLL 0.61
0,
#BARLINEOFF
#MEASURE 15/64
#SCROLL 1
600000008,
#BARLINEON
#MEASURE 1/64
#SCROLL 0.59
0,
#BARLINEOFF
#MEASURE 15/64
#SCROLL 1
600000008,
#BARLINEON
#MEASURE 1/64
#SCROLL 0.58
0,
#BARLINEOFF
#MEASURE 15/64
#SCROLL 1
600000008,
#BARLINEON
#MEASURE 1/64
#SCROLL 0.57
0,
#BARLINEOFF
#MEASURE 15/64
#SCROLL 1
600000008,
#BARLINEON
#MEASURE 1/64
#SCROLL 0.56
0,
#BARLINEOFF
#MEASURE 15/64
#SCROLL 1
600000008,
#BARLINEON
#MEASURE 1/64
#SCROLL 0.55
0,
#BARLINEOFF
#MEASURE 15/64
#SCROLL 1
600000008,
#BARLINEON
#MEASURE 1/64
#SCROLL 0.53
0,
#BARLINEOFF
#MEASURE 15/64
#SCROLL 1
600000008,
#BARLINEON
#MEASURE 1/64
#SCROLL 0.52
0,
#BARLINEOFF
#MEASURE 15/64
#SCROLL 1
600000008,
#BARLINEON
#MEASURE 1/64
#SCROLL 0.51
0,
#BARLINEOFF
#MEASURE 1/4
#SCROLL 1
600000000008,
#GOGOEND
#MEASURE 4/4
#BPMCHANGE 127.5
#SCROLL 2
0, //181
#END
