//TJADB Project
TITLE:Hibike! Taiko no Tatsujin
TITLEJA:響け!太鼓の達人
SUBTITLE:--Ichirou Mizuki & Mitsuko Horie & Hironobu Kageyama
BPM:165
WAVE:Hibike! Taiko no Tatsujin.ogg
OFFSET:-2.442
DEMOSTART:62.585

COURSE:Oni
LEVEL:9
BALLOON:25,20,20
SCOREINIT:540
SCOREDIFF:138
#START
22220000,
22220020,
20202222,
02202000,
13,
7,
0008,
2211102211104000,
00102001,
0020001000200022,
20102001,
0020001000200011,
10102001,
0020001000200022,
23003003,
0022102210222222,
#SECTION
#BRANCHSTART p,75,90
#N
1010101000222020,
1010101010222000,
1010111000222020,
1011101000112022,
1010101000112020,
1010101000222000,
12121210,
1120112011212000,
#E
1010101000222020,
1010101010222000,
1010111000222020,
1011101000112022,
1010101000112020,
1010101000222000,
12121210,
1120112011212000,
#M
1010101010222022,
1010101010222020,
1010111000222022,
1011101000112022,
1010101010112022,
1010101010222020,
12121212,
1120112211212000,
#SECTION
#BRANCHSTART p,75,90
#N
2020202000111010,
2020202020111000,
2020222000111010,
2022202000221011,
2020202000221010,
2020202000111000,
21212120,
2210221022121000,
#E
2020202000111010,
2020202020111000,
2020222000111010,
2022202000221011,
2020202000221010,
2020202000111000,
21212120,
2210221022121000,
#M
2020202020111011,
2020202020111010,
2020202020111011,
2022202000221011,
2020202020221011,
2020202020111010,
21212121,
2210221122121000,
#SECTION
#BRANCHSTART p,75,90
#N
1011201011201022,
1022101012103000,
2022102022102011,
2011202021204000,
1011101010222020,
1011101010222000,
1001201010012010,
1000201110222000,
1110111011111110,
33000040,
#E
1011201011201022,
1022101012103000,
2022102022102011,
2011202021204000,
1011101010222020,
1011101010222000,
1001201010012010,
1000201110222000,
1110111011111110,
33000040,
#M
1111201111201022,
1022101012103000,
2222102222102011,
2011202021204000,
1011101110222020,
1011101110222000,
1101201011012010,
1000201110222020,
1110222011112220,
33000040,
#GOGOSTART
#SECTION
#BRANCHSTART p,75,90
#N
1120112010112220,
1120112012010210,
1022102210221210,
0030300020022010,
2011221020112210,
2211201000112020,
30303303,
2211102211104000,
#E
1120112010112220,
1120112012010210,
1022102210221210,
0030300020022010,
2011221020112210,
2211201000112020,
30303303,
2211102211104000,
#M
1120112010112220,
1120112012010210,
1022102210221210,
0030302220222010,
2011221020112210,
2211201000112020,
30403403,
2212102212104000,
#SECTION
#BRANCHSTART p,75,90
#N
1120112010112220,
1120112012010210,
1022102210221210,
03320440,
1201201012012010,
1110111011111110,
3030300000221000,
#GOGOEND
500000000000000000000000000000000008000000000000,
00022222,
10120000,
0022101022101000,
#GOGOSTART
1201201012012010,
1112111211111110,
33300030,
7,
0008,
0011200011200040,
#E
1120112010112220,
1120112012010210,
1022102210221210,
03320440,
1201201012012010,
1110111011111110,
3030300000221000,
#GOGOEND
500000000000000000000000000000000008000000000000,
00022222,
10120000,
0022101022101000,
#GOGOSTART
1201201012012010,
1112111211111110,
33300030,
7,
0008,
0011200011200040,
#M
1120112010112220,
1120112012010210,
1022102210221210,
0030301120112000,
1201201012012010,
1110111011112220,
3030302020221000,
#GOGOEND
1022102210221022,
1122104040404040,
1022102210221022,
1222101022101000,
#GOGOSTART
1201201012012010,
1112111211121110,
33344030,
7,
000000000000000000000000000000000008000000000000,
0011200011200040,
#BRANCHEND
#GOGOEND
#END

COURSE:Hard
LEVEL:6
BALLOON:20,20
SCOREINIT:750
SCOREDIFF:210
#START
11100000,
11100000,
11101000,
11100000,
11,
7,
000000000000000000000000000000000008000000000000,
1110001110003000,
00102001,
02010200,
00102001,
02010200,
00102001,
02010200,
03003003,
,
11110220,
11110220,
11110220,
11110000,
11110220,
11110000,
12101210,
12121000,
22220110,
22220110,
22220110,
22220000,
22220110,
22220000,
21202120,
21212000,
1110000000102010,
0011100020202000,
2220000000201020,
0022200010101000,
11110220,
11110220,
1001001010010010,
10011010,
500000000000000000000000000000000008000000000000,
3,
#GOGOSTART
1011101020202000,
1011101020202000,
12101212,
10102220,
1011101010111010,
1011101000202020,
30303303,
00002220,
1011101020202000,
1011101020202000,
12101212,
1100,
12101210,
1110111011101000,
33300000,
#GOGOEND
500000000000000000000000000000000000000000000008,
00022220,
4400,
0,
#GOGOSTART
12101210,
1110111011101000,
33300000,
7,
000000000000000000000000000000000008000000000000,
03303303,
#GOGOEND
,
,
,
#END

COURSE:1
LEVEL:4
BALLOON:12,12
SCOREINIT:880
SCOREDIFF:300
#START
1,
1,
11,
1100,
11,
7,
000000000000000000000000000000000008000000000000,
0,
00102001,
02010200,
00102001,
02010200,
00102001,
02010200,
30003005,
000000000000000000000008000000000000000000000000,
1102,
1102,
1102,
1100,
1102,
1100,
1111,
10111000,
2201,
2201,
2201,
2200,
2201,
2200,
2222,
20222000,
11000101,
01101000,
11000101,
01101000,
1110,
1110,
11,
1111,
500000000000000000000000000000000008000000000000,
3,
#GOGOSTART
11110000,
11110000,
1111,
1100,
11101110,
11110000,
30303003,
0,
11110000,
11110000,
1111,
1100,
1111,
11101110,
3300,
#GOGOEND
500000000000000000000000000000000000000000000008,
0022,
4400,
0,
#GOGOSTART
1111,
11101110,
3300,
7,
000000000000000000000000000000000008000000000000,
03003003,
#GOGOEND
,
,
,
#END

COURSE:0
LEVEL:4
BALLOON:8
SCOREINIT:770
SCOREDIFF:323
#START
1,
1,
11,
1,
11,
7,
000000000000000000000000000000000008000000000000,
0,
12,
11,
12,
11,
12,
11,
33,
500000000000000000000000000000000008000000000000,
11,
1110,
11,
1110,
11,
1110,
11,
1110,
22,
2220,
22,
2220,
22,
2220,
22,
2220,
11,
1110,
22,
2220,
1100,
1100,
33,
3011,
500000000000000000000000000000000008000000000000,
3,
#GOGOSTART
10010000,
10010000,
1111,
1,
1111,
10020000,
10101003,
0,
10010000,
10010000,
1111,
1,
1212,
500000000000000000000000000000000008000000000000,
3,
#GOGOEND
1200,
1200,
1200,
1200,
#GOGOSTART
1212,
500000000000000000000000000000000008000000000000,
3,
1200,
1200,
03003003,
#GOGOEND
,
,
,
#END
