//TJADB Project
TITLE:Morpho
TITLEJA:モルフォ
SUBTITLE:--Mifumei (BNSI) feat. cono
SUBTITLEJA:ミフメイ(BNSI) feat. cono
BPM:180
WAVE:Morpho.ogg
OFFSET:-10.599
DEMOSTART:24.924 //shinuchi:
4950/2940/1840/1350

COURSE:Oni
LEVEL:9
BALLOON:6,26
SCOREINIT:470,1390
SCOREDIFF:113
#START
#BARLINEOFF
00007008, //1
#BARLINEON
1000221211202210,
2110102211201122,
1000221211221210,
0010221222102022,
100000200100200000100200100100202010100000200000,
0010202211201210,
0022212212221210,
00070000,
#MEASURE 6/4
000008, //10
#MEASURE 4/4
1000100210102120,
0210100210102212,
1001100210102120,
0210100210102210,
0010100210102120,
0210100210102210,
0010200210100012,
2010222122102210, //18
#SCROLL 2
500000000000000000000000000000000008000000
#SCROLL 1
100000,
0010202212102022,
1011202212102010,
0210202212102022,
1122112211221012,
0210202212102010,
0210202212102011,
0010201100102210, //26
3000001110000011,
1000001110200020,
3000001110000011,
1020112010211000,
1021102210211022,
1021112211211022,
1222121212221210,
500000000000000000000000000000000000000008000000,
4000000022222220, //35
#GOGOSTART
3000112000122210,
#GOGOEND
0022100000122210,
1210001022122210,
0022102120102220,
#GOGOSTART
1220112000122210,
#GOGOEND
0022100022102202,
1010001000122210,
3336, //43
000000000000000008000000000000
#GOGOSTART
100200200200100000,
#GOGOEND
0022102022122212,
1010001022102210,
0022102120120120,
1020221022122210,
0022100022102122,
1020001012221022,
1122122210222022, //51
10000000
#GOGOSTART
30001120,
1000112010001120,
1000112110001121,
1000112110112020,
1000122010001220,
1000122010001220,
1000122110001221,
1000122110122020, //59
1000111210201112,
1020111211121222,
1020111210201112,
1020111212221011,
1010221110102211,
1010221110102210,
200200100100100100200200100100100100202010100000,
#GOGOEND
3336, //67
000000000008000002000000000000100200200200
#GOGOSTART
100000,
2222102222102222,
1210001022102210,
2222102122102022,
1002102202122210,
2222101022102222,
1210002022102210,
200200100000100200200200102020200100202020100200,
#GOGOEND
0,
0,
0, //78
#END

COURSE:Hard
LEVEL:8
BALLOON:5,22
SCOREINIT:530,1920
SCOREDIFF:130
#START
#BARLINEOFF
00007008, //1
#BARLINEON
1000200210200010,
01121202,
1000200210201110,
0010001002102020,
1000200210222020,
01021201,
0011111011111010,
00070000,
#MEASURE 6/4
000008, //10
#MEASURE 4/4
10101101,
0010200210100020,
10101101,
0010100210100010,
00101201,
0010100210100010,
02101101,
0010222011111000, //18
#SCROLL 2
500000000000000000000000000000000008000000
#SCROLL 1
100000,
0010200210102220,
1000200210102010,
0010200210102022,
2011102220111010,
0010200210102010,
0010200210102030,
01230120, //26
3000001110000011,
1000001110200020,
3000001110000011,
12111010,
1011101110111011,
1011101110111000,
1212121212121212,
500000000000000000000000000000000000000008000000,
4, //35
#GOGOSTART
3000102000101110,
#GOGOEND
0011100000101110,
1010001000101110,
0011100010102020,
#GOGOSTART
1020111000101110,
#GOGOEND
0011100011101020,
1010001000202220,
3336, //43
000000000000000008000000000000
#GOGOSTART
100000100100100000,
#GOGOEND
0011100000101110,
1010001000101110,
0011100020020020,
1020111000101110,
0011100011101020,
1010001000202220,
1110111010111111, //51
10000000
#GOGOSTART
30001110,
1000111010001110,
1000222010002220,
1000222010222000,
1000111010001110,
1000111010001110,
1000222010002220,
1000222010102020, //59
1000111010101110,
1010111010102020,
1010111010101110,
1010111011111000,
1010111110101111,
1010111110101111,
500000000000000000000000000008000000000000000000,
#GOGOEND
3336, //67
000000000000000008000000000000100000100100
#GOGOSTART
100000,
0011100011101020,
1010001000101110,
0011100020201110,
0011101000101110,
0011100011101020,
1010001000101110,
1110111110210210,
#GOGOEND
0,
0,
0, //78
#END

COURSE:Normal
LEVEL:7
BALLOON:4,18,7,9
SCOREINIT:660,3110
SCOREDIFF:173
#START
#BARLINEOFF
00007008, //1
#BARLINEON
10201102,
01022202,
10201201,
01010220,
10201202,
01022201,
01111111,
00070000,
#MEASURE 6/4
000008, //10
#MEASURE 4/4
10102011,
01101100,
10102011,
01101101,
00102011,
01101101,
00201105,
000000000000000000000000000000000000000000000008, //18
#SCROLL 2
0000000
#SCROLL 1
1,
01012102,
10101101,
01012102,
10101101,
01012105,
000000000000000000000008000000000000000000300000,
00030000, //26
30011001,
10012000,
30011001,
1121,
10111011,
10111110,
1010101010111000,
600000000000000000000000000000000000000000000008,
0, //35
#GOGOSTART
30120101,
#GOGOEND
02100111,
01010101,
02101122,
#GOGOSTART
12010101,
#GOGOEND
02102112,
01010202,
6, //43
000000000008000000000000000000
#GOGOSTART
100000000000100000,
#GOGOEND
02100111,
01010101,
0020100020020020,
12010101,
02102112,
01010202,
01111111, //51
1000
#GOGOSTART
3011,
10111011,
10121012,
10121020,
10111011,
10111011,
10221022,
10221120, //59
11101110,
11101122,
11101110,
11221110,
11111111,
1010101010111000,
70000800,
#GOGOEND
6, //67
000000000000000000000008000000000000000000
#GOGOSTART
100000,
02102112,
01010101,
02102211,
01010101,
02102112,
01010207,
0008,
#GOGOEND
0,
0,
0, //78
#END

COURSE:Easy
LEVEL:4
BALLOON:3,14,5,7
SCOREINIT:580,5490
SCOREDIFF:170
#START
#BARLINEOFF
00007008, //1
#BARLINEON
10000101,
02,
10000001,
01000020,
10000202,
00002001,
00101011,
00070000,
#MEASURE 6/4
000008, //10
#MEASURE 4/4
10100002,
02,
10100002,
00002001,
00100002,
00002001,
00002005,
000000000000000000000000000000000000000000000008, //18
#SCROLL 2
0000000
#SCROLL 1
1,
01010000,
10002001,
01010000,
10002001,
01010105,
000000000000000000000008000000000000000000300000,
00030000, //26
33,
34,
33,
34,
1111,
1111,
10101110,
600000000000000000000000000000000000000000000008,
0, //35
#GOGOSTART
30010101,
#GOGOEND
00100200,
01010101,
0122,
#GOGOSTART
10010101,
#GOGOEND
00100200,
01010100,
6, //43
000000000008000000000000000000
#GOGOSTART
100000000000100000,
#GOGOEND
00100200,
01010101,
0120,
10010101,
00100200,
01010101,
01101110, //51
1
#GOGOSTART
3,
1111,
1011,
1110,
1011,
1110,
1011,
1110, //59
1122,
1110,
1122,
1110,
1111,
10101110,
70000800,
#GOGOEND
6, //67
000000000000000000000008000000000000000000
#GOGOSTART
100000,
00100200,
01010101,
0121,
01010101,
00100200,
01010107,
0008,
#GOGOEND
0,
0,
0, //78
#END
