//TJADB Project
TITLE:Hai Yorokonde
TITLEJA:はいよろこんで
SUBTITLE:--Kocchi no Kento
SUBTITLEJA:こっちのけんと
BPM:147
WAVE:Hai Yorokonde.ogg
OFFSET:-3.307
DEMOSTART:47.3886 //shinuchi:
13320/4740/3200/2490/1870

COURSE:Edit
LEVEL:9
BALLOON:
SCOREINIT:630,1960
SCOREDIFF:170
#START
0,
1012001012001012,
000000100000100200100000202020200100100000100000, //3
1020222010002000,
000000000222200100200100,
2220101220201000,
000000110000220000220000,
1010222010201020,
000200100222200100200100,
2220101220201000,
#BPMCHANGE 147.43
000000000000100100202020200000200200200000200000, //11
#BPMCHANGE 147
1011221020201040,
2011221210202030,
1011201010221020,
1011202011201120,
100000202020200000200200100000100000200000101010,
1020102010221010,
100000101010200000100000100100200000100200200000,
200000202020100000200200100000100100200200100000, //19
2010100021101020,
2010100021102022,
2010102021101220,
3000300030222011,
2210102210102220,
2210102210102220,
1220122010221222,
#SCROLL 2
300300300580580580300300, //27
#SCROLL 1
#GOGOSTART
1120120211201202,
1022120211102022,
1120120211201202,
1022120211112022,
1120120211201202,
1022120211102022,
1120120211201202,
1022120211104000, //35
1220122212021020,
1022122012201020,
1222122012021220,
1022102212021020,
1022120212221022,
1022122012021020,
1220122010221222,
#SCROLL 2
300300300580580580300300, //43
#GOGOEND
3000
#SCROLL 1
100210122022,
1020110120102220,
1000100210122022,
1022112011121022,
1000100210122022,
1020110120104000,
1220122010221222,
#SCROLL 2
300300300580580580300300, //51
#SCROLL 1.5
000300000000000000004000000000000000000000000000,
#SCROLL 1
0,
0, //54
#END

COURSE:Oni
LEVEL:7
BALLOON:
SCOREINIT:760,2540
SCOREDIFF:220
#START
0,
1022001022001022,
0010220011101010, //3
10221010,
0000002220000010,
22121110,
0011,
10221010,
1000102220001010,
22121210,
#BPMCHANGE 147.43
1000002220222020, //11
#BPMCHANGE 147
1011201020201020,
1011221110202010,
1011201020201020,
1011202010201020,
10221011,
22121211,
0010111010102020,
0010111010102220, //19
2000002220200020,
2000002220200020,
2000002220202000,
1130,
2000002220200020,
2000002220200020,
2000200020222020,
11122211, //27
#GOGOSTART
1120112010201120,
1120102011102000,
1120112010201120,
1120102030304000,
1120112010201120,
1120102010102000,
1120112010201120,
1120102030304000, //35
1110101111011010,
1011101020002000,
1110111011011010,
1011101020002000,
2011101110101010,
1011101020002000,
1120112010111110,
11122211, //43
#GOGOEND
1000101110001011,
10112122,
1000101110001011,
10121122,
1000101110001011,
10112122,
1120112010111110,
11122211, //51
1,
0,
0, //54
#END

COURSE:Hard
LEVEL:5
BALLOON:
SCOREINIT:730,3270
SCOREDIFF:220
#START
0,
1002001002001002,
0010102010102220, //3
10111010,
02,
10111010,
0011,
10111010,
1121,
10111010,
#BPMCHANGE 147.43
10002220, //11
#BPMCHANGE 147
1011101010101000,
1011101010101000,
1011101010101000,
11112210,
10112021,
11221111,
01111122,
01111122, //19
20022000,
20022000,
20022020,
1130,
20022202,
20022202,
20202220,
11122211, //27
#GOGOSTART
1010111010001010,
1110100010102000,
1010111010001010,
1110100030304000,
1010111010001010,
1110100010102000,
1010111010001010,
1110100030304000, //35
1010101011011010,
1122,
1010101011011010,
1122,
1010101011011010,
1122,
1010101010111000,
11122211, //43
#GOGOEND
1000001110000011,
10112020,
1000001110000011,
10101122,
1000001110000011,
10112020,
1010101010111000,
11122211, //51
1,
0,
0, //54
#END

COURSE:Normal
LEVEL:4
BALLOON:
SCOREINIT:800,4960
SCOREDIFF:275
#START
0,
10010010,
01002000, //3
1011,
02,
1011,
02,
1011,
02,
1011,
#BPMCHANGE 147.43
0022, //11
#BPMCHANGE 147
1011,
1011,
1011,
10111000,
10111010,
10111000,
10111010,
10111000, //19
20022000,
20022000,
20022000,
1130,
20022000,
20022000,
20202220,
11122211, //27
#GOGOSTART
10111010,
11103030,
10111010,
11103040,
10111010,
11103030,
10111010,
11103040, //35
11101110,
1022,
11101110,
1022,
11101110,
1022,
11101110,
11122211, //43
#GOGOEND
10011001,
1022,
10011001,
10101110,
10011001,
1022,
10101110,
11122211, //51
1,
0,
0, //54
#END

COURSE:Easy
LEVEL:2
BALLOON:3,3
SCOREINIT:1320,14470
SCOREDIFF:1160
#START
0,
1001,
01, //3
11,
0,
11,
0,
11,
0,
11,
#BPMCHANGE 147.43
0, //11
#BPMCHANGE 147
1,
1,
1,
11,
11,
1,
11,
1, //19
2,
2,
2,
500000000000000000000008000000000000000000000000,
2,
2,
22,
78, //27
#GOGOSTART
1101,
13,
1101,
13,
1101,
13,
1101,
13, //35
11,
1,
11,
1,
11,
1,
11,
78, //43
#GOGOEND
3,
1,
1,
11,
1,
1,
11,
500000000000000000000000000000000000000000000008, //51
0,
0,
0, //54
#END
