//TJADB Project
TITLE:Boundless Oceans, Vast Skies
TITLEJA:海闊天空
TITLEZH:海阔天空
SUBTITLE:--
SUBTITLEJA:
SUBTITLEZH:
BPM:77
WAVE:Boundless Oceans Vast Skies.ogg
OFFSET:-3.331
DEMOSTART:71.511

COURSE:Oni
LEVEL:5
BALLOON:26,26,26
SCOREINIT:3320
SCOREDIFF:0
#START
1110,
11120112,
11020112,
11020112,
12110221,
21022011,
1000002000000011,
1022001010002011,
1022101010201122,
10020011, //10
1020201110001010,
1020101120002011,
1020101120002220,
1020202020001011,
1000200020002011,
1011201010002011,
1011201010201122,
10202011, //18
12211011,
1010101120002020,
1010202220002020,
1020202020002011,
1011201010201100,
1000201110202000,
1011201110201100,
70000008, //26
1010101120002020,
30303220,
1011101120112200,
70000008,
3000203000112020, //31
#GOGOSTART
1020101020112020,
1020101120112020,
1020101120002020,
600000000000000000000000000008000000200200100100,
1011201010102210,
11211022,
1011201120102200,
70000008, //39
1011201120002020,
3332,
1011201120112200,
600000000000000000000000000008000000000000000000,
#GOGOEND
0, //44
#END

COURSE:Hard
LEVEL:4
BALLOON:22,19,22
SCOREINIT:5690
SCOREDIFF:0
#START
1110,
11120110,
11020110,
11020110,
11020110,
2001,
10000001,
10011001,
10011020,
1001, //10
10011010,
10112020,
10112020,
1221,
10000001,
10011001,
10011020,
1001, //18
10011010,
10112020,
10222020,
1220,
1011101010001000,
1120,
1011101010002000,
70000008, //26
11111020,
3330,
11111020,
9009,
8, //31
#GOGOSTART
1000101010111020,
1000101010111020,
10111022,
600000000000000000000000000008000000000000000000,
1011101010001000,
1122,
1011101010002000,
70000008, //39
1011101010002000,
3330,
1011101010002000,
600000000000000000000000000008000000000000000000,
#GOGOEND
0, //44
#END

COURSE:Normal
LEVEL:3
BALLOON:14,13,14
SCOREINIT:9100
SCOREDIFF:0
#START
1110,
10110000,
1,
1,
10110000,
2,
1,
10011000,
10011000,
1001, //10
1001,
10022000,
10022000,
1,
1,
10011000,
10011000,
1001, //18
1001,
10022000,
10022000,
500000000000000000000000000008000000000000000000,
10111000,
1120,
10111000,
70000008, //26
10111000,
3330,
10111000,
9009,
8, //31
#GOGOSTART
10111010,
10111010,
10111020,
600000000000000000000000000008000000000000000000,
10111010,
1120,
10111020,
70000008, //39
10111000,
3330,
10111020,
600000000000000000000000000008000000000000000000,
#GOGOEND
0, //44
#END

COURSE:Easy
LEVEL:2
BALLOON:8,11,8
SCOREINIT:15290
SCOREDIFF:0
#START
11,
1,
1,
1,
1,
2,
1,
11,
11,
1, //10
1,
12,
12,
1,
1,
11,
11,
1, //18
1,
12,
12,
500000000000000000000000000008000000000000000000,
11,
12,
11,
70000800, //26
11,
3330,
12,
9009,
8, //31
#GOGOSTART
1110,
11,
12,
600000000000000000000000000008000000000000000000,
31,
1110,
12,
70000800, //39
1110,
3330,
12,
600000000000000000000000000008000000000000000000,
#GOGOEND
0, //44
#END
