//TJADB Project
TITLE:Help me, Saitama 2000!!
TITLEJA:Help me, さいたま2000!!
SUBTITLE:--Touhou Project Arrange - Beat Mario respects LindaAI-CUE
SUBTITLEJA:東方Projectアレンジ ビートまりお respects LindaAI-CUE
BPM:240
WAVE:Help me Saitama 2000.ogg
OFFSET:-0.910
DEMOSTART:2.910

COURSE:Oni
LEVEL:10
BALLOON:30,4,15,50
SCOREINIT:1050
SCOREDIFF:0
#START
22,
2243,
2121,
#GOGOSTART
4343,
#GOGOEND
2121,
#GOGOSTART
40314231,
#GOGOEND
10201120,
#GOGOSTART
4343,
#GOGOEND
2121,
2000200020111020, //10
2010111020101110,
#GOGOSTART
42314231,
#GOGOEND
2010111020101110,
#GOGOSTART
42314231,
#GOGOEND
11212121,
1110201020101020,
1110111011101110,
600000000000000000000000000000000008000000000000, //18
1020112010200020,
1020112010202210,
1122112211112220,
#GOGOSTART
4343,
#GOGOEND
11212121,
1110201020101020,
2012121212221010,
500000000000000000000000000000000008000000000000, //26
30101110,
30101110,
30101110,
30101110,
40101110,
40101110,
40101110,
#GOGOSTART
400000000000400000400000600000000000000008000000, //34
#GOGOEND
3020112010200020,
3020112020102210,
3020221010202010,
3011101010101110,
400101100100,
400101101101,
401101111101,
4011101011111010, //42
7,
0,
8000000000222222,
2222222222222222,
2222222222222220,
0222222000220000,
2000222200020000,
0,
0,
0, //52
1111,
1122,
1111,
1122,
1111,
1122,
1111,
#GOGOSTART
4343, //60
#GOGOEND
1020112010200020,
1020112010201110,
1020221010100010,
#GOGOSTART
4343,
#GOGOEND
1020112010200020,
1020112010202210,
1020221010201020,
3022111111112000, //68
22221220,
22221220,
22221225,
000000000000000000000000000000000008000000000000,
2220202012202020,
2220202012202020,
2220202012202050,
000000000000000000000000000000000008000000000000, //76
1111102010200020,
#GOGOSTART
42314231,
#GOGOEND
1121102010202210,
#GOGOSTART
42314231,
#GOGOEND
1111102010200020,
#GOGOSTART
42314231,
#GOGOEND
3,
#GOGOSTART
4000300040111010, //84
4343,
#GOGOEND
10201120,
#GOGOSTART
43434030,
#GOGOEND
21212010,
#GOGOSTART
2022221022221010,
#GOGOEND
2011112011112020,
#GOGOSTART
400000000000400000400000600000000000000008000000,
#GOGOEND
100100000100200200000100101010101010700000000000, //92
8,
0,
2,
00111111,
10101110,
1011101010101000,
10101110,
1011101010101000, //100
11221220,
1010202010111000,
11221220,
1010202010111000,
3333,
3344,
400000400000600008000000400000400000600008000000,
2222112212121110, //108
1000111010201020,
#GOGOSTART
4343,
#GOGOEND
21212210,
#GOGOSTART
43434030,
#GOGOEND
1000111010201020,
#GOGOSTART
300000000000
#SCROLL 2
600008000000
#SCROLL 1
300000000000
#SCROLL 2
600008000000,
#GOGOEND
#SCROLL 1
1117,
0008, //116
1111102010200020,
1121102010202210,
1111102210202010,
2000101120001000,
1111102010200020,
1121102010202210,
1112102011221020,
0, //124
#GOGOSTART
3020111111201020,
3020112111202010,
3020111210221020,
3011211010201020,
4020112111201020,
4020111211202010,
4020112222101020,
4012221210403040, //132
#GOGOEND
3020111020112220,
100100100000100000500008000000200200200000200000,
1020111020112220,
200200100000200000500008000000200000100000100000,
1020111121112220,
03033000,
0,
0, //140
7,
0,
0,
0,
8,
0, //146
#END

COURSE:Hard
LEVEL:8
BALLOON:24,4,10,40
SCOREINIT:1420
SCOREDIFF:0
#START
22,
2240,
2121,
#GOGOSTART
4343,
#GOGOEND
2121,
#GOGOSTART
4343,
#GOGOEND
10201120,
#GOGOSTART
4343,
#GOGOEND
2121,
2221, //10
20112010,
#GOGOSTART
4343,
#GOGOEND
20112010,
#GOGOSTART
4343,
#GOGOEND
11212120,
11212110,
1010101010101110,
600000000000000000000000000000000008000000000000, //18
1020111010100020,
1020111010002020,
1010111020201000,
#GOGOSTART
4343,
#GOGOEND
11212120,
11212110,
21111211,
500000000000000000000000000000000008000000000000, //26
30101110,
30101110,
30101110,
30101110,
40101110,
40101110,
40101110,
#GOGOSTART
300000000000300000300000600000000000000008000000, //34
#GOGOEND
32101110,
32101110,
32101110,
32111110,
400101100100,
400101101100,
401101101100,
4000101011101010, //42
7,
0,
80000500,
0,
000000000000000000000000000000000000000008000000,
000500000000000000008000000000500008000000000000,
508000000000500000000800000000000508000000000000,
0,
0,
0, //52
1111,
1122,
1111,
1122,
1111,
1122,
1111,
#GOGOSTART
4343, //60
#GOGOEND
1020111010100020,
1020111010100020,
1010111010201000,
#GOGOSTART
4343,
#GOGOEND
1020111010100020,
1020111010002020,
1010111020201000,
3000111010102000, //68
22222220,
22222220,
22222220,
500000000000000000000000000000000008000000000000,
22222220,
22222220,
22222220,
500000000000000000000000000000000008000000000000, //76
1110111010100020,
#GOGOSTART
4343,
#GOGOEND
1010111010201000,
#GOGOSTART
4343,
#GOGOEND
1110111010100020,
#GOGOSTART
4343,
#GOGOEND
3,
#GOGOSTART
40304111, //84
4343,
#GOGOEND
10201120,
#GOGOSTART
43434030,
#GOGOEND
21212010,
#GOGOSTART
22212210,
#GOGOEND
21121120,
#GOGOSTART
300000000000300000300000600000000000000008000000,
#GOGOEND
1101200170000000, //92
8,
0,
2,
0111,
10101110,
1011101010002000,
10101110,
1011101010000000, //100
11111110,
10101110,
11111110,
11101010,
3333,
3344,
300000300000600008000000300000300000600008000000,
22121110, //108
10211212,
#GOGOSTART
4343,
#GOGOEND
10122010,
#GOGOSTART
43434030,
#GOGOEND
10211212,
#GOGOSTART
300000000000
#SCROLL 2
600008000000
#SCROLL 1
300000000000
#SCROLL 2
600008000000,
#GOGOEND
#SCROLL 1
1117,
0008, //116
1110111010100020,
1110111010100020,
1010111010201000,
20112010,
1110111010100020,
1110111010002020,
1010111020201000,
0, //124
#GOGOSTART
3020111010102000,
31212120,
3020111010102000,
32121120,
4020111010102000,
41212120,
4020111010102000,
42121120, //132
#GOGOEND
30102222,
100100100000100000500008000000000000200000200000,
10102222,
100100100000100000500008000000000000200000200000,
1000100011102020,
03033000,
0,
0, //140
7,
0,
0,
0,
8,
0, //146
#END

COURSE:Normal
LEVEL:7
BALLOON:18,3,8,30
SCOREINIT:2480
SCOREDIFF:0
#START
22,
2240,
22,
#GOGOSTART
44,
#GOGOEND
22,
#GOGOSTART
44,
#GOGOEND
1212,
#GOGOSTART
44,
#GOGOEND
22,
1110, //10
22,
#GOGOSTART
44,
#GOGOEND
22,
#GOGOSTART
44,
#GOGOEND
10101110,
10101110,
11101110,
600000000000000000000000000000000008000000000000, //18
11,
11101000,
10101110,
#GOGOSTART
44,
#GOGOEND
1212,
11102000,
20111010,
500000000000000000000000000000000008000000000000, //26
3,
3,
3,
3,
31,
31,
31,
#GOGOSTART
300000000000300000000000600000000008000000000000, //34
#GOGOEND
31,
31101000,
30101110,
31,
3011,
3011,
3111,
3111, //42
7,
0,
80000500,
0,
000000000000000000000000000000000000000008000000,
000500000000000000008000000000500008000000000000,
508000000000500000000800000000000508000000000000,
0,
0,
0, //52
1111,
1120,
1111,
1120,
1111,
1120,
1111,
#GOGOSTART
44, //60
#GOGOEND
11,
11101000,
20202220,
#GOGOSTART
44,
#GOGOEND
11,
11101000,
20202220,
30111020, //68
2222,
2220,
2222,
500000000000000000000000000000000008000000000000,
2222,
2220,
2222,
500000000000000000000000000000000008000000000000, //76
11,
#GOGOSTART
44,
#GOGOEND
22202000,
#GOGOSTART
44,
#GOGOEND
11,
#GOGOSTART
44,
#GOGOEND
3,
#GOGOSTART
44, //84
44,
#GOGOEND
1212,
#GOGOSTART
4440,
#GOGOEND
2221,
#GOGOSTART
22202220,
#GOGOEND
21101120,
#GOGOSTART
300000000000300000000000600000000008000000000000,
#GOGOEND
1270, //92
8,
0,
2,
0,
10101110,
11111020,
10101110,
11111000, //100
10101110,
10101110,
10101110,
1110,
3333,
3340,
33,
2220, //108
10001111,
#GOGOSTART
44,
#GOGOEND
1212,
#GOGOSTART
4440,
#GOGOEND
10001111,
#GOGOSTART
33,
#GOGOEND
#SCROLL 1
1117,
0008, //116
11,
11101000,
20202220,
2121,
11,
11101000,
20202220,
0, //124
#GOGOSTART
30101110,
3212,
30101110,
30101111,
30101110,
3212,
30101110,
30101111, //132
#GOGOEND
30102200,
10110000,
10102200,
10110000,
10101022,
03003000,
0,
0, //140
7,
0,
0,
0,
8,
0, //146
#END

COURSE:Easy
LEVEL:5
BALLOON:12,2,6,24
SCOREINIT:3330
SCOREDIFF:0
#START
22,
2240,
22,
#GOGOSTART
44,
#GOGOEND
22,
#GOGOSTART
44,
#GOGOEND
11,
#GOGOSTART
44,
#GOGOEND
22,
1110, //10
22,
#GOGOSTART
44,
#GOGOEND
22,
#GOGOSTART
44,
#GOGOEND
1110,
1110,
1111,
600000000000000000000000000008000000000000000000, //18
11,
1110,
1011,
#GOGOSTART
44,
#GOGOEND
11,
1110,
1011,
500000000000000000000000000008000000000000000000, //26
3,
3,
3,
3,
31,
31,
31,
#GOGOSTART
600000000000000000000000000008000000000000000000, //34
#GOGOEND
31,
3110,
3011,
3011,
3111,
3110,
3111,
3110, //42
7,
0,
80000500,
0,
000000000000000000000000000000000000000008000000,
000500000000000000008000000000500008000000000000,
508000000000500000000800000000000508000000000000,
0,
0,
0, //52
1110,
1120,
1110,
1120,
1110,
1120,
1110,
#GOGOSTART
44, //60
#GOGOEND
11,
1110,
1011,
#GOGOSTART
44,
#GOGOEND
11,
1110,
1011,
3, //68
22,
22,
2220,
500000000000000000000000000000000008000000000000,
22,
2220,
22,
500000000000000000000000000000000008000000000000, //76
11,
#GOGOSTART
44,
#GOGOEND
2220,
#GOGOSTART
44,
#GOGOEND
11,
#GOGOSTART
44,
#GOGOEND
3,
#GOGOSTART
44, //84
44,
#GOGOEND
1212,
#GOGOSTART
4440,
#GOGOEND
2221,
#GOGOSTART
2222,
#GOGOEND
2112,
#GOGOSTART
300000000000300000000000600000000008000000000000,
#GOGOEND
17, //92
8,
0,
2,
0,
22,
22,
22,
2220, //100
1110,
1112,
1110,
1110,
3330,
3340,
33,
2, //108
1011,
#GOGOSTART
44,
#GOGOEND
1011,
#GOGOSTART
4440,
#GOGOEND
1011,
#GOGOSTART
33,
#GOGOEND
#SCROLL 1
1017,
0008, //116
11,
2220,
1011,
22,
11,
2220,
1011,
0, //124
#GOGOSTART
3011,
3212,
3122,
3220,
3011,
3212,
3122,
3220, //132
#GOGOEND
32,
10010000,
12,
10010000,
1011,
03003000,
0,
0, //140
7,
0,
0,
0,
8,
0, //146
#END
