//TJADB Project
TITLE:Eternal bond
TITLEJA:Eternal bond
SUBTITLE:--Ryuwitty feat. GUMI
SUBTITLEJA:リューイッティ
BPM:170
WAVE:Eternal bond.ogg
OFFSET:-1.618
DEMOSTART:54.735

COURSE:Oni
LEVEL:8
BALLOON:20,7
SCOREINIT:360
SCOREDIFF:80
#START
#GOGOSTART
1102201102201020,
1102201102201020,
0211221121212120,
#MEASURE 7/8
30030040040040,
#MEASURE 4/4
1102201102201020,
1102201102201020,
0211212120020020,
#MEASURE 7/8
30030040040040,
30040040000000,//9
#GOGOEND
#MEASURE 4/4
7,
0008,
3000200210102010,
0011202100102010,
0011202021102010,
0010001000400022,
1000200210102010,
0022111022121022,
1000200210102010,
0022102112102100,
3000200210102010,
0011202100102010,
0011202021102010,
0010001000400022,
1010002002201010,
02110401,
1002201002205000,
000000000000000000000008000000000000000000000000,
12212212,
#MEASURE 2/4
2122,
#MEASURE 4/4
3022203022203022,
#MEASURE 2/4
22203000,
#MEASURE 3/4
102210221010,
#MEASURE 4/4
2210102210102222,
#MEASURE 5/4
100000000100000000000000100000000100000000000000100010001000,
100000000100000000000000100000000100000000000000100010001000,
#MEASURE 3/4
111222,
111222,
112112,
112120,
700008,//40
#GOGOSTART
#MEASURE 4/4
0011101110112110,
1021111010221110,
0011101110112110,
1122,
0011101110112110,
1021111010221110,
11220111,
2020202000102210,
0011101110112110,
1021111022110210,
0011101110112110,
3344,//52
#GOGOEND
11222011,
2020201222121210,//54
#GOGOSTART
0011101110211110,
1022111010222110,
0011201110112110,
10102121,
0011101110211110,
1022111010222110,
11220111,
2020202000102210,
0011101110211110,
1022111022210210,
0011201110112110,
3344,//66
#GOGOEND
#MEASURE 3/4
112220,
#MEASURE 5/4
10102020201222121210,//68
#MEASURE 4/4
#GOGOSTART
1010021011102111,
1020200120200220,
1012111010102111,
1021221020221210,
1012101011101211,
1012101110201211,
1012101011101211,
1012101112221112,//76
#GOGOEND
2,
#END

COURSE:Hard
LEVEL:8
BALLOON:17,6
#START
#GOGOSTART
1101101102200000,
1101101102200000,
500000000000000000000000000000000008000000000000,
#MEASURE 7/8
30030040040040,
#MEASURE 4/4
1101101102200000,
1101101102200000,
500000000000000000000000000000000008000000000000,
#MEASURE 7/8
30030040040040,
30030030000000,//9
#GOGOEND
#MEASURE 4/4
7,
0008,
3000200220202010,
02210201,
01202221,
01010400,
1000200220202010,
0022201022201000,
1000200220202010,
0022201022201000,
3000200220202010,
02210201,
01202221,
01010400,
1010002002201010,
02110401,
10220150,
000000000000000000000008000000000000000000000000,
12212212,
#MEASURE 2/4
2122,
#MEASURE 4/4
32232232,
#MEASURE 2/4
2230,
#MEASURE 3/4
121211,
#MEASURE 4/4
21121122,
#MEASURE 5/4
10010000100100002000,
10010000100100002000,
#MEASURE 3/4
122122,
122122,
122,
122,
7008,//40
#GOGOSTART
#MEASURE 4/4
0011101010111010,
1022202010222020,
0011101010111010,
1122,
0011101010111010,
1022202010222020,
11220111,
22220000,
0011101010111010,
1022202010220220,
0011101010222020,
3344,//52
#GOGOEND
11222011,
2020201110222010,//54
#GOGOSTART
0011101010111010,
1022202010222020,
0011101010111010,
10102121,
0011101010111010,
1022202010222020,
11220111,
22220000,
0011101010111010,
1022202010220220,
0011101010222020,
3344,//66
#GOGOEND
#MEASURE 3/4
112220,
#MEASURE 5/4
10102020201110222010,//68
#MEASURE 4/4
#GOGOSTART
11011011,
12202202,
11011011,
12202202,
1010101011101011,
1010101110202020,
1010101011101011,
1010101110222022,//76
#GOGOEND
2,
,
#END

COURSE:Normal
LEVEL:6
BALLOON:14
#START
#GOGOSTART
1001001000202000,
1001001000202000,
500000000000000000000000000000000008000000000000,
#MEASURE 7/8
30030040040040,
#MEASURE 4/4
1001001000202000,
1001001000202000,
500000000000000000000000000000000008000000000000,
#MEASURE 7/8
30030040040040,
30030030000000,//9
#GOGOEND
#MEASURE 4/4
7,
0008,
30202211,
02020101,
02202211,
01010400,
10202211,
02202201,
10202211,
02020200,
30202211,
02020101,
02202211,
01010400,
11020222,
02220201,
10220150,
000000000000000000000008000000000000000000000000,
11102011,
#MEASURE 2/4
12,
#MEASURE 4/4
11102022,
#MEASURE 2/4
2220,
#MEASURE 3/4
101210,
#MEASURE 4/4
10121012,
#MEASURE 5/4
10010000100100002000,
10010000100100002000,
#MEASURE 3/4
102102,
102102,
102020,
102020,
,//40
#GOGOSTART
#MEASURE 4/4
10112011,
20111120,
10112011,
2222,
10112011,
20111120,
11220111,
22220000,
10112011,
20112220,
10112011,
2233,//52
#GOGOEND
11222011,
22211220,//54
#GOGOSTART
10112011,
20112120,
10112011,
20202120,
10112011,
20112120,
11220111,
22220000,
10112011,
20112220,
10112011,
2211,//66
#GOGOEND
#MEASURE 3/4
112220,
#MEASURE 5/4
1122211220,//68
#MEASURE 4/4
#GOGOSTART
11011011,
12202202,
11011011,
12202202,
11101110,
11111220,
11101111,
100000200000200000000000500000000000000008000000,//76
#GOGOEND
4,
,
#END

COURSE:Easy
LEVEL:5
BALLOON:12
#START
#GOGOSTART
1001001000000000,
1001001000000000,
500000000000000000000000000000000008000000000000,
#MEASURE 7/8
3,
#MEASURE 4/4
1001001000000000,
1001001000000000,
500000000000000000000000000000000008000000000000,
#MEASURE 7/8
3,
3,//9
#GOGOEND
#MEASURE 4/4
7,
0008,
30202011,
02020101,
00202011,
01010400,
10202011,
02201100,
10202011,
02020200,
30202011,
02020101,
00202011,
01010400,
11020201,
01020201,
10220150,
000000000000000000000008000000000000000000000000,
1121,
#MEASURE 2/4
12,
#MEASURE 4/4
1121,
#MEASURE 2/4
12,
#MEASURE 3/4
111,
#MEASURE 4/4
10111011,
#MEASURE 5/4
10010000100100002000,
10010000100100002000,
#MEASURE 3/4
102201,
102201,
122,
122,
,//40
#GOGOSTART
#MEASURE 4/4
10111011,
10111020,
10111011,
1222,
10111011,
10111020,
10110220,
10110000,
10111011,
10111020,
10111011,
2233,//52
#GOGOEND
10222010,
22200000,//54
#GOGOSTART
10111011,
10111020,
10111011,
1222,
10111011,
10111020,
10110220,
10110000,
10111011,
10111020,
10111011,
2233,//66
#GOGOEND
#MEASURE 3/4
102220,
#MEASURE 5/4
1022200000,//68
#MEASURE 4/4
#GOGOSTART
11011011,
02202202,
11011011,
02202202,
11011101,
11011220,
11011101,
12201010,//76
#GOGOEND
4,
,
#END
