//TJADB Project
TITLE:Got Boost?
TITLEJA:Got Boost?
SUBTITLE:--Kamen Rider Gavv
SUBTITLEJA:「仮面ライダーガヴ」より
BPM:165
WAVE:Got Boost.ogg
OFFSET:-1.881
DEMOSTART:53.450 //Shinuchi:
14690/8070/4280/2900

COURSE:Oni
LEVEL:6
BALLOON:8
SCOREINIT:860,3110
SCOREDIFF:258
#START
30202023,
02220020,
30202023,
02230020,
30202023,
02220020,
1000102010011010,
70000800, //8
10211021,
00200121,
10201121,
00211121,
0022201010102010,
0022200000102010,
10201121,
00012121, //16
10211021,
21211021,
1000222010002010,
0010201110102010,
1000201110102010,
1000202000111010,
22122122,
10444000, //24
10212010,
2220101020001020,
10212110,
2220101020101000,
111102202200,
111100222200,
11112222,
11112222,
10021120,
10221120,
1000100010010010,
4022, //36
#GOGOSTART
1010200010222010,
0010201000102011,
1010200010222010,
01210020,
1010200010222010,
0010201000102011,
1010200010222060,
000000000008000000000000200000200000200000300000, //44
0300300020202030,
0300300020202030,
0300300011102010,
0022,
1010200010222011,
1010201110102000,
1020102010111010,
#GOGOEND
2000001110101000,
4,
0, //54
#END

COURSE:Hard
LEVEL:4
BALLOON:7,11,4,4,4
SCOREINIT:970,4660
SCOREDIFF:310
#START
30002003,
00020020,
30002003,
00030020,
30002003,
00020020,
1111,
70000800, //8
10201001,
00200110,
10201011,
00011011,
02011011,
02000110,
10201011,
00011020, //16
10201011,
10112020,
10201011,
01112011,
10211011,
10200110,
700000000000000000000000000000000000000000000008,
00444000, //24
10012010,
01102010,
10012110,
01102010,
10212010,
10212010,
11102220,
11102220,
1021,
10221020,
1000100020020000,
4022, //36
#GOGOSTART
10201121,
01210021,
10201121,
01210021,
10201121,
01210021,
10201126,
000000000008000000000000200000200000200000700000, //44
00081117,
00082227,
00081021,
0022,
10201121,
01210120,
12121212,
#GOGOEND
1011,
4,
0, //54
#END

COURSE:Normal
LEVEL:3
BALLOON:5,8,4,4,4
SCOREINIT:1320,9150
SCOREDIFF:738
#START
30000003,
0,
30000003,
00030000,
30000003,
0,
1111,
70000800, //8
10000001,
0,
10000001,
0,
10001001,
0,
10001001,
0, //16
12,
1110,
10002001,
0111,
1011,
1001,
700000000000000000000000000000000000000000000008,
0440, //24
1011,
0110,
1011,
0110,
1021,
12,
1122,
1122,
12,
1022,
1110,
4, //36
#GOGOSTART
10101001,
01110000,
10101001,
01110000,
10101001,
01110000,
10101006,
000000000008000000000000000000000000000000700000, //44
00080007,
00080007,
00080011,
0,
10101001,
01000000,
1111,
#GOGOEND
11,
4,
0, //54
#END

COURSE:Easy
LEVEL:2
BALLOON:4,6,4,4,7
SCOREINIT:1530,17200
SCOREDIFF:1600
#START
30000003,
0,
30000003,
0,
30000003,
0,
11,
70000800, //8
1,
0,
1,
0,
10000001,
0,
10000001,
0, //16
11,
0,
11,
0,
11,
1,
700000000000000000000000000000000000000000000008,
0, //24
1001,
01,
1001,
0,
11,
1,
1,
2,
1,
11,
1110,
3, //36
#GOGOSTART
10100001,
0,
10100001,
0,
10100001,
0,
10100001,
00000007, //44
00008007,
00008007,
000000000000000000000000000000000000000000000008,
0,
10100001,
0,
1110,
#GOGOEND
1,
4,
0, //54
#END
