//TJADB Project
TITLE:Mesmerizer
TITLEJA:メズマライザー
SUBTITLE:--Satsuki feat. Hatsune Miku, Kasane Teto
SUBTITLEJA:サツキ feat. 初音ミク・重音テト
BPM:185
WAVE:Mesmerizer.ogg
OFFSET:-0.624
DEMOSTART:39.543 //shinuchi:
5710/3800/2430/1840/1020

COURSE:Edit
LEVEL:9
BALLOON:
SCOREINIT:330,1040
SCOREDIFF:83
#START
1221221210112222,
1022202012121222,
1001201011221122,
1021011110210210,
1020120101211012,
100100100200200200100100100200100100200020002000, //6
1002202202022020,
1020202022202020,
1020002220202020,
12121010,
1002202202022020,
1020202022202020,
1020202012222030,
0000003000202222, //14
1011111110221021,
11221222,
1011111110211011,
22221222,
1011111110211101,
12221222,
1011111110122020,
02221122, //22
#SCROLL 0.85
3001001020022020,
1001001020222020,
3001001020022020,
100000000100000000100000200000200000200020002000,
3001001020022020,
#SCROLL 0.9
1020102010221022,
#SCROLL 1
100100100100100100100100100100100100100010001000,
1, //30
#GOGOSTART
3011201010112010,
1022102210222010,
1020102010222012,
2222102210201111,
1011201010112010,
1022102210222010,
1011101020222011,
100000100100100000100100100000100100100010001000, //38
3011201010112010,
1022102210222010,
1020102010222012,
2222102210201111,
1011201010112010,
1022102210222010,
1011101022201020,
100100100200200200100100100000200200100010001000, //46
#GOGOEND
3021221210112222,
1022202012121222,
1001201011221122,
1021011110210210,
1020120101211012,
100100100200200200100100100200100100200020002000, //52
10222022,
20202022,
2020202020222020,
02222022,
20222022,
20202022,
22222202,
100200100000100200000200100200100100200020002000, //60
1011101010111010,
1011101110111010,
1010101010111011,
1111101110101111,
1011101010111010,
1011101110111010,
1011101011101010,
100100100100100100100100100000100100100010001000, //68
00000000,
#BARLINEOFF
0000034
#GOGOSTART
#SCROLL 1.3
1,
#BARLINEON
1020102010222012,
2222102210201111,
1011201010112010,
1022102210222010,
10111010202220
#SCROLL 1.75
31,
300000100300100000300100300000100300100030001000, //76
#SCROLL 1.3
3011201010112010,
1022102210222010,
1020102010222012,
2222102210201111,
1012001010112010,
1022102210222010,
1011101022201020,
100100100200200200100100100000200200100010001000, //84
#GOGOEND
#SCROLL 1
3021221210112222,
1022202012121222,
#GOGOSTART
1001201011221122,
1021011110210210,
1001201011221122,
1021011110221020,
1001201011221122,
1021011110210210,
1020120101211012,
100100100200200200100100100200100100200020002000, //94
#GOGOEND
3,
0,
0, //97
#END

COURSE:Oni
LEVEL:7
BALLOON:10,10,10
SCOREINIT:580,1950
SCOREDIFF:143
#START
3,
7008,
1001001010001110,
1001011010010020,
1020200100202020,
500000000000000000000000000000000008000000000000, //6
1000202202022000,
12222220,
12022220,
22222020,
1000202202022000,
12222220,
12222223,
00030222, //14
1000100011101010,
1212,
1000100011101010,
2222,
1000100011101010,
1212,
1000100011101010,
02201010, //22
#SCROLL 0.85
30012020,
10202022,
30012020,
10201022,
30012020,
#SCROLL 0.9
10201111,
#SCROLL 1
500000000000000000000000000000000000000000000008,
0, //30
#GOGOSTART
1000111010001110,
1000200010002220,
12121105,
000000000000000000000008000000000000100100100000,
1000111010001110,
1000200010002220,
12121203,
01313131, //38
3000111010001110,
1000200010002220,
12121105,
000000000000000000000008000000000000100100100000,
1000111010001110,
1000200010002220,
12121202,
02222222, //46
#GOGOEND
3,
7008,
1001001010001110,
1001011010010020,
1020200100202020,
500000000000000000000000000000000008000000000000, //52
22,
2220,
22202002,
02202022,
22,
2220,
22202002,
02202222, //60
1000111010001110,
1000100010001110,
11111105,
000000000000000000000008000000000000100100100000,
1000111010001110,
1000100010001110,
11111101,
01111111, //68
00000000,
#BARLINEOFF
0000034
#GOGOSTART
1,
#BARLINEON
1020102010222060,
000000000000000000000008000000000000100100100000,
1000111010001110,
1000200010002220,
1020102010222030,
01313131, //76
3000111010001110,
1000200010002220,
1020102010222060,
000000000000000000000008000000000000100100100000,
1001101010001110,
1000200010002220,
1020102010222020,
0020202022202220, //84
#GOGOEND
3,
7008,
#GOGOSTART
1001001010001110,
1001011010010020,
1001001010001110,
1001001110201020,
1001001010001110,
1001011010010020,
1020200100202020,
500000000000000000000000000000000008000000000000, //94
#GOGOEND
3,
0,
0, //97
#END

COURSE:Hard
LEVEL:4
BALLOON:8,8,8
SCOREINIT:520,2620
SCOREDIFF:138
#START
3,
7008,
1001001010000000,
1001001010000000,
11101110,
500000000000000000000000000000000008000000000000, //6
2202,
2202,
22,
2220,
2202,
2202,
20202023,
00030000, //14
10101111,
1212,
10101111,
2222,
10101111,
1212,
10101111,
01101010, //20
#SCROLL 0.85
30011010,
20201022,
30011010,
20202022,
30011010,
#SCROLL 0.9
20202022,
#SCROLL 1
500000000000000000000000000000000000000000000008,
0, //30
#GOGOSTART
10111011,
10201021,
11101105,
000000000000000000000008000000000000200000200000,
10111011,
10201021,
11101203,
01313130, //38
30111011,
10201021,
11101105,
000000000000000000000008000000000000200000200000,
10111011,
10201021,
11101202,
02222020, //46
#GOGOEND
3,
7008,
1001001010000000,
1001001010000000,
11101110,
500000000000000000000000000000000008000000000000, //52
2,
2,
20002002,
0,
2,
2,
20002002,
02202020, //60
10111011,
10101011,
11101105,
000000000000000000000008000000000000100000100000,
10111011,
10101011,
11101101,
01111111, //68
00000000,
#BARLINEOFF
0000034
#GOGOSTART
1,
#BARLINEON
12121205,
000000000000000000000008000000000000200000200000,
10111022,
10201021,
11221203,
01313131, //76
30111022,
10201021,
11221105,
000000000000000000000008000000000000200000200000,
1001001010002020,
10201021,
11221202,
02222222, //84
#GOGOEND
3,
7008,
#GOGOSTART
1001001010002000,
1001001010102000,
1001001010002000,
1001001010101000,
1001001010002000,
1001001010102000,
11101110,
500000000000000000000000000000000008000000000000, //94
#GOGOEND
3,
0,
0, //97
#END

COURSE:Normal
LEVEL:5
BALLOON:6,6,5
SCOREINIT:710,4130
SCOREDIFF:208
#START
0,
7008,
11,
1110,
11101010,
500000000000000000000000000000000008000000000000, //6
2,
2,
2,
22,
2202,
2202,
20202023,
00030000, //14
10101110,
1202,
10101110,
2202,
10101110,
1202,
10101111,
0211, //22
#SCROLL 0.85
31,
2022,
31,
2022,
31,
#SCROLL 0.9
2022,
#SCROLL 1
500000000000000000000000000000000000000000000008,
0, //30
#GOGOSTART
3112,
1212,
11101005,
000000000000000000000008000000000000000000000000,
1112,
1212,
11102003,
0330, //38
1112,
1212,
11101005,
000000000000000000000008000000000000000000000000,
1112,
1212,
11101002,
0222, //46
#GOGOEND
3,
7008,
11,
1110,
11101010,
500000000000000000000000000000000008000000000000, //52
2,
0,
2,
0,
2,
0,
2,
0, //60
11,
1111,
11101005,
000000000000000000000008000000000000000000000000,
11,
1111,
11101005,
000000000000000000000000000000000000000008000000, //68
00000000,
#BARLINEOFF
0000000
#GOGOSTART
0,
#BARLINEON
11101005,
000000000000000000000008000000000000100000000000,
10111020,
1212,
11102003,
0330, //76
10101011,
1212,
11101005,
000000000000000000000008000000000000100000000000,
1001001010001010,
1212,
11102002,
0222, //84
#GOGOEND
3,
70000800,
#GOGOSTART
11,
1110,
11,
2022,
11,
1110,
11101010,
500000000000000000000000000000000008000000000000, //94
#GOGOEND
3,
0,
0, //97
#END

COURSE:Easy
LEVEL:3
BALLOON:4,4,4
SCOREINIT:600,6370
SCOREDIFF:210
#START
0,
70000800,
11,
1110,
1101,
500000000000000000000000000008000000000000000000, //6
2,
2,
2,
22,
2,
2,
20002003,
00030000, //14
11,
1,
11,
1,
11,
1,
10001001,
0011, //22
#SCROLL 0.85
3,
22,
3,
22,
3,
#SCROLL 0.9
22,
#SCROLL 1
500000000000000000000000000000000000000000000008,
0, //30
#GOGOSTART
11,
1110,
10001005,
000000000000000000000008000000000000000000000000,
11,
1110,
10001003,
0330, //38
11,
1110,
10001005,
000000000000000000000008000000000000000000000000,
11,
1110,
10001002,
0220, //46
#GOGOEND
3,
70000800,
11,
1110,
1101,
500000000000000000000000000008000000000000000000, //52
2,
0,
2,
0,
2,
0,
2,
0, //60
11,
1110,
10001005,
000000000000000000000008000000000000000000000000,
11,
1110,
10001005,
000000000000000000000008000000000000000000000000, //68
00000000,
#BARLINEOFF
0000000
#GOGOSTART
0,
#BARLINEON
10101005,
000000000000000000000008000000000000000000000000,
11,
1110,
10101003,
0330, //76
11,
1110,
10101005,
000000000000000000000008000000000000000000000000,
11,
1110,
10101002,
0220, //84
#GOGOEND
3,
70000800,
#GOGOSTART
11,
1110,
11,
1011,
11,
1110,
1101,
500000000000000000000000000008000000000000000000, //94
#GOGOEND
3,
0,
0, //97
#END
