//TJADB Project
TITLE:CRUXNAUT
TITLEJA:CRUXNAUT
SUBTITLE:--cosMo@bousouP
SUBTITLEJA:cosMo@暴走P
BPM:303
WAVE:CRUXNAUT.ogg
OFFSET:-1.167
DEMOSTART:60.577

COURSE:Oni
LEVEL:10
BALLOON:26,390
SCOREINIT:710
SCOREDIFF:0
#START
#GOGOSTART
2011111111111110,
2011111111111110,
2011111111111110,
#GOGOEND
2,
#GOGOSTART
2011111111111110,
2011111111111110,
2011111111111110,
#GOGOEND
2, //8
#SCROLL 2
#GOGOSTART
40
#SCROLL 1
102011,
20102011,
#SCROLL 2.15
40
#SCROLL 1
102101,
20102101,
#SCROLL 2.3
4
#SCROLL 1
1212121,
2211221122112211,
222111222111,
200200200200100010001000200200200200100010001000, //16
#GOGOEND
2
#SCROLL 1.11
2
#SCROLL 1.22
2
#SCROLL 1.33
2
#SCROLL 1.44
20
#SCROLL 1
10
#SCROLL 1.11
2
#SCROLL 1.22
2
#SCROLL 1.33
2
#SCROLL 1.44
2
#SCROLL 1
1010, //17
#BARLINEOFF
#SCROLL 1.11
2
#SCROLL 1.22
2
#SCROLL 1.33
2
#SCROLL 1.44
2
#SCROLL 1
101010
#SCROLL 3.9
508000, //18
#BARLINEON
#SCROLL 1
2
#SCROLL 1.11
2
#SCROLL 1.22
2
#SCROLL 1.33
2
#SCROLL 1.44
20
#SCROLL 1
10
#SCROLL 1.11
2
#SCROLL 1.22
2
#SCROLL 1.33
2
#SCROLL 1.44
2
#SCROLL 1
1010, //19
#BARLINEOFF
#SCROLL 1.11
2
#SCROLL 1.22
2
#SCROLL 1.33
2
#SCROLL 1.44
2
#SCROLL 1
101010
#SCROLL 3.9
608000, //20
#BARLINEON
#SCROLL 1
30012021,
12112012,
10012012,
1020101022202020,
10012021,
12112012,
10012021,
10201010
#SCROLL 1.4
2
#SCROLL 1.5
2
#SCROLL 1.6
2
#SCROLL 1.7
2
#SCROLL 1.8
2
#SCROLL 1.9
2
#SCROLL 2
20, //28
#SCROLL 1
10101212,
12212212,
10101212,
1000102011111020,
10101212,
12212210,
10101212,
1110201110201110, //36
#MEASURE 3/4
411220,
322210,
412321,
412321,
412321,
412321, //42
411210,
322120,
321412,
322411,
321412,
322411, //48
#MEASURE 4/4
4000000021111111,
2021,
200000001000000010000000200000100100100100100100,
2000101020111010,
2000001021111111,
2010101021111111,
200000001000000010000000200000100100100100100100,
2000101020111010, //56
#GOGOSTART
3000202010221020,
12121022,
1010202010222010,
12121122,
1020202010222010,
1020102010222020,
1110102011101020,
1110111011101110, //64
#GOGOEND
2202,
2222,
1122,
22,
#SCROLL 1.75
#GOGOSTART
30
#GOGOEND
#SCROLL 1
22102022101022,
1010102210102210,
#SCROLL 2
#GOGOSTART
40
#GOGOEND
#SCROLL 1
22102022101022,
1010102110102110, //72
#SCROLL 1.06
#GOGOSTART
3
#SCROLL 1.12
3
#SCROLL 1.18
3
#SCROLL 1.24
3
#SCROLL 1.3
3
#SCROLL 1.36
3
#SCROLL 1.42
3
#SCROLL 1.48
3,
#BARLINEOFF
#SCROLL 1.54
3
#SCROLL 1.6
3
#SCROLL 1.66
3
#SCROLL 1.72
3
#SCROLL 1.78
3
#SCROLL 1.84
3
#SCROLL 1.9
3
#SCROLL 1.95
3, //74
#BARLINEON
#SCROLL 2
2222111122221111,
2211221121212121,
#GOGOEND
22,
2
#SCROLL 3
4, //78
#SCROLL 1
#GOGOSTART
30221212,
1022201110002000,
500000000000000008000000100000200000100000100100,
1000201000101111,
10221212,
1022201110004000,
500000000000000008000000100000200000200000500000,
008000000300000000400000300000000000100100100100, //86
#GOGOEND
20002020
#GOGOSTART
10222020,
0020002000202220,
500000000000000008000000100000200000100000100100,
1000201000111020,
12222212,
12222212,
500000000000000008000000100000200000200000500000,
008000000300000000400000300000000000200200200200, //94
1022102110221021,
1022102110221012,
1022102110221021,
1022102110221012,
1022112211221122,
1122112211221122,
1121112111211121,
1121212121212121, //102
10101121,
01202100,
20201121,
02101207,
0,
0008,
2210221022102210,
2121212121212121, //110
#GOGOEND
20212212,
2011102000001000,
12212210,
12212210,
20212011,
21102111,
20210120,
10000000
#SCROLL 1.4
2
#SCROLL 1.5
2
#SCROLL 1.6
2
#SCROLL 1.7
2
#SCROLL 1.8
2
#SCROLL 1.9
2
#SCROLL 2
20, //118
#SCROLL 1
#GOGOSTART
100222111222,
111222111222,
122112122112,
500008000000200000500008000000200000500008000000,
112211211221,
1222101020201020,
1021112010211120,
1121112111211010, //126
#GOGOEND
220000000000000000200200,
220000200000200000200000,
220000000000000000200200,
220000200000200000200000,
220000000000000000200200,
220000200000200000200000,
220000000000000000200200,
220000200000200020002000, //134
11221122,
1110201110201110,
22112211,
2220102220102220,
1110222011102220,
1122112211221122,
1212121212121212,
1, //142
#GOGOSTART
500000000000000008000000100000200000100000100000,
2020101020201110,
500000000000000008000000100000200000100000200000,
2010202010202210,
500000000000000008000000100000200000100000100000,
2020101020201110,
500000000000000008000000100000200000100000200000,
2010202010202210, //150
200000200000100000200000500008000000100100100000,
2010222020102210,
200000200000100000200000500008000000100100100000,
2010222020102210,
32222222,
32222222,
1222222212222222,
1222122212221222, //158
1011101120121021,
1011101120212021,
1011101120222021,
10211120
#SCROLL 1.4
2
#SCROLL 1.5
2
#SCROLL 1.6
2
#SCROLL 1.7
2
#SCROLL 1.8
2
#SCROLL 1.9
2
#SCROLL 2
20,
#SCROLL 1
1110201120201022,
2010211122112221,
1212121212121212,
1122221112222201, //166
#GOGOEND
#MEASURE 2/4
0,
#MEASURE 4/4
7,
0,
0008, //170
#GOGOEND
3,
2,
000000002200,
0,
0,
0000000011111111,
2111211120000000,
0,
0, //179
#END

COURSE:Hard
LEVEL:8
BALLOON:12,3,3,3,3,3,3,3,12,3,3,390
SCOREINIT:1270
SCOREDIFF:0
#START
#GOGOSTART
200000500000000000000000000000000008000000000000,
200000500000000000000000000000000008000000000000,
200000500000000000000000000000000008000000000000,
#GOGOEND
2,
#GOGOSTART
200000500000000000000000000000000008000000000000,
200000500000000000000000000000000008000000000000,
200000500000000000000000000000000008000000000000,
#GOGOEND
2, //8
#SCROLL 2
#GOGOSTART
40
#SCROLL 1
102011,
20102011,
#SCROLL 2.15
40
#SCROLL 1
102101,
20102101,
#SCROLL 2.3
4
#SCROLL 1
1212121,
21212121,
7,
0008, //16
#GOGOEND
#SCROLL 1.5
78
#SCROLL 1.75
78,
#BARLINEOFF
#SCROLL 2
70800
#SCROLL 3.9
580,
#BARLINEON
#SCROLL 1.5
78
#SCROLL 1.75
78,
#BARLINEOFF
#SCROLL 2
70800
#SCROLL 3.9
680, //20
#BARLINEON
#SCROLL 1
30012021,
10112012,
10012021,
10112021,
10012021,
10112012,
10012021,
1011
#SCROLL 2
7080, //28
#SCROLL 1
10101012,
10212010,
10101012,
10212012,
10101012,
10212010,
10101012,
10212010, //36
#MEASURE 3/4
401220,
302210,
402301,
402301,
402301,
402301, //42
401210,
302120,
301402,
302401,
301402,
302401, //48
#MEASURE 4/4
4021,
2021,
201010200100,
20112011,
20012010,
21112010,
201010200100,
20112011, //56
#GOGOSTART
30221012,
12121022,
11221022,
12121022,
12221022,
12121022,
11121112,
11211121, //64
#GOGOEND
2202,
2222,
1122,
22,
#SCROLL 1.75
#GOGOSTART
3
#GOGOEND
#SCROLL 1
0002222,
30030030,
#SCROLL 2
#GOGOSTART
4
#GOGOEND
#SCROLL 1
0002222,
30030030, //72
#SCROLL 1.06
#GOGOSTART
3
#SCROLL 1.12
0
#SCROLL 1.18
0
#SCROLL 1.24
3
#SCROLL 1.3
0
#SCROLL 1.36
0
#SCROLL 1.42
0
#SCROLL 1.48
0,
#BARLINEOFF
#SCROLL 1.54
3
#SCROLL 1.6
0
#SCROLL 1.66
0
#SCROLL 1.72
3
#SCROLL 1.78
0
#SCROLL 1.84
0
#SCROLL 1.9
0
#SCROLL 1.95
0, //74
#BARLINEON
#SCROLL 2
3344,
600000000000000000000000000000000008000000000000,
#GOGOEND
22,
2
#SCROLL 3
4, //78
#SCROLL 1
#GOGOSTART
30221122,
12121020,
500000000000000008000000100000200000100000200000,
10210122,
10221122,
12121040,
500000000000000008000000200000200000200000500000,
008000000300000000400000300000000000000000000000, //86
#GOGOEND
2022
#GOGOSTART
0122,
12121020,
500000000000000008000000100000200000100000200000,
10210122,
10221122,
12121020,
500000000000000008000000100000200000200000500000,
008000000300000000400000300000000000000000000000, //94
10101210,
12101211,
10101210,
12101211,
10221122,
11221122,
12121212,
12121212, //102
10101121,
01202100,
20201121,
02101207,
0,
0008,
5,
000000000000000000000000000008000000000000000000, //110
#GOGOEND
20212120,
11120010,
20212120,
12210210,
20212010,
20212010,
20210120,
10
#SCROLL 2
78, //118
#SCROLL 1
#GOGOSTART
100000100200100000202020,
100222100222,
100222100222,
500008000000200000500008000000200000500008000000,
100222100222,
10112211,
10112211,
500000000008000000000000500000000008000000000000, //126
#GOGOEND
20000022,
2222,
20000022,
2222,
20000022,
2222,
20000022,
200200202020, //134
10221122,
10210210,
20112211,
20121020,
30040040,
30040040,
30030030,
3, //142
#GOGOSTART
500000000000000008000000000000200000100000100000,
22112211,
500000000000000008000000000000200000100000100000,
22221122,
500000000000000008000000000000200000100000100000,
22112211,
500000000000000008000000000000200000100000100000,
22221122, //150
100000000000200000200000500008000000200000100000,
22221121,
100000000000200000200000500008000000200000100000,
22221121,
32222222,
32222222,
12221222,
12121212, //158
10112012,
10112022,
10112012,
1012
#SCROLL 2
7080,
#SCROLL 1
10112212,
10112212,
12221222,
12121212, //166
#GOGOEND
#MEASURE 2/4
0,
#MEASURE 4/4
7,
0,
0008, //170
#GOGOEND
3,
2,
000000002200,
0,
0,
000000000000000000000000500000000000000000000008,
00222000,
0,
0, //179
#END

COURSE:Normal
LEVEL:7
BALLOON:9,2,2,2,2,2,2,2,8,2,2,390
SCOREINIT:1920
SCOREDIFF:0
#START
#GOGOSTART
2,
2,
2,
#GOGOEND
2,
#GOGOSTART
2,
2,
2,
#GOGOEND
2, //8
#SCROLL 2
#GOGOSTART
4
#SCROLL 1
011,
20111000,
#SCROLL 2.15
4
#SCROLL 1
011,
20111000,
#SCROLL 2.3
4
#SCROLL 1
0202020,
2222,
7,
0008, //16
#GOGOEND
#SCROLL 1.5
78
#SCROLL 1.75
78,
#BARLINEOFF
#SCROLL 2
7800,
#BARLINEON
#SCROLL 1.5
78
#SCROLL 1.75
78,
#BARLINEOFF
#SCROLL 2
7800, //20
#BARLINEON
#SCROLL 1
30010011,
12,
10010011,
12,
10010011,
12,
10010011,
10
#SCROLL 2
78, //28
#SCROLL 1
10101011,
1110,
10101011,
1120,
10101011,
1110,
10101011,
1120, //36
#MEASURE 3/4
42,
31,
43,
43,
43,
43, //42
42,
31,
34,
34,
34,
34, //48
#MEASURE 4/4
4,
22,
211200,
22,
22,
22,
211200,
22, //56
#GOGOSTART
30111010,
1122,
10111010,
1122,
10111010,
1122,
10111010,
10111010, //64
#GOGOEND
2202,
2222,
1122,
22,
#SCROLL 1.75
#GOGOSTART
3
#GOGOEND
#SCROLL 1
0000000,
30030030,
#SCROLL 2
#GOGOSTART
4
#GOGOEND
#SCROLL 1
0000000,
30030030, //72
#SCROLL 1.06
#GOGOSTART
3
#SCROLL 1.12
0
#SCROLL 1.18
0
#SCROLL 1.24
3
#SCROLL 1.3
0
#SCROLL 1.36
0
#SCROLL 1.42
0
#SCROLL 1.48
0,
#BARLINEOFF
#SCROLL 1.54
3
#SCROLL 1.6
0
#SCROLL 1.66
0
#SCROLL 1.72
3
#SCROLL 1.78
0
#SCROLL 1.84
0
#SCROLL 1.9
0
#SCROLL 1.95
0, //74
#BARLINEON
#SCROLL 2
3333,
600000000000000000000000000000000008000000000000,
#GOGOEND
22,
2
#SCROLL 3
4, //78
#SCROLL 1
#GOGOSTART
30220010,
1120,
500000000000000000000000000008000000000000000000,
10210000,
10220010,
1120,
5,
000008000000000000000000300000000000000000000000, //86
#GOGOEND
2022
#GOGOSTART
0010,
1120,
500000000000000000000000000008000000000000000000,
10210000,
10220010,
1120,
5,
000000000008000000000000300000000000000000000000, //94
10101011,
1111,
10101011,
1111,
10101011,
1111,
10101011,
1110, //102
10102201,
0220,
20202201,
00202007,
0,
0008,
5,
000000000000000000000000000008000000000000000000, //110
#GOGOEND
20201110,
20110010,
20201110,
20110010,
20201110,
20201110,
20020020,
10
#SCROLL 2
78, //118
#SCROLL 1
#GOGOSTART
10101011,
10101011,
1111,
500008000000000000500008000000000000500008000000,
10101011,
10101011,
10111011,
500000000008000000000000500000000008000000000000, //126
#GOGOEND
20000022,
2222,
20000022,
2222,
20000022,
2222,
20000022,
200200202020, //134
1222,
10220020,
1222,
10222020,
30040040,
30040040,
30030030,
3, //142
#GOGOSTART
500000000000000008000000000000000000100000100000,
1122,
500000000000000008000000000000000000100000100000,
1212,
500000000000000008000000000000000000100000100000,
1122,
500000000000000008000000000000000000100000100000,
1212, //150
10221020,
11201120,
10221020,
11201120,
3222,
3222,
11101110,
11111110, //158
10102011,
10102011,
10102011,
11
#SCROLL 2
78,
#SCROLL 1
10111011,
10111011,
10111011,
10111222, //166
#GOGOEND
#MEASURE 2/4
0,
#MEASURE 4/4
7,
0,
0008, //170
#GOGOEND
3,
2,
000000002200,
0,
0,
000000000000000000000000500000000000000000000008,
00222000,
0,
0, //179
#END

COURSE:Easy
LEVEL:5
BALLOON:9,2,2,2,2,2,2,2,6,2,2,390
SCOREINIT:2540
SCOREDIFF:0
#START
#GOGOSTART
2,
2,
2,
#GOGOEND
2,
#GOGOSTART
2,
2,
2,
#GOGOEND
2, //8
#SCROLL 2
#GOGOSTART
4
#SCROLL 1
010,
21,
#SCROLL 2.15
4
#SCROLL 1
010,
21,
#SCROLL 2.3
4
#SCROLL 1
0002000,
22,
7,
0008, //16
#GOGOEND
#SCROLL 1.5
78
#SCROLL 1.75
78,
#BARLINEOFF
#SCROLL 2
7800,
#BARLINEON
#SCROLL 1.5
78
#SCROLL 1.75
78,
#BARLINEOFF
#SCROLL 2
7800, //20
#BARLINEON
#SCROLL 1
3011,
12,
1011,
12,
1011,
12,
1011,
10
#SCROLL 2
78, //28
#SCROLL 1
1110,
1110,
1110,
1120,
1110,
1110,
1110,
1120, //36
#MEASURE 3/4
4,
3,
43,
43,
43,
43, //42
4,
3,
34,
34,
34,
34, //48
#MEASURE 4/4
4,
2,
22,
22,
2,
2,
22,
22, //56
#GOGOSTART
3,
1120,
1,
1120,
1,
1120,
1,
1120, //64
#GOGOEND
2202,
2222,
1122,
22,
#SCROLL 1.75
#GOGOSTART
3
#GOGOEND
#SCROLL 1
0000000,
30030030,
#SCROLL 2
#GOGOSTART
4
#GOGOEND
#SCROLL 1
0000000,
30030030, //72
#SCROLL 1.06
#GOGOSTART
3
#SCROLL 1.12
0
#SCROLL 1.18
0
#SCROLL 1.24
3
#SCROLL 1.3
0
#SCROLL 1.36
0
#SCROLL 1.42
0
#SCROLL 1.48
0,
#BARLINEOFF
#SCROLL 1.54
3
#SCROLL 1.6
0
#SCROLL 1.66
0
#SCROLL 1.72
3
#SCROLL 1.78
0
#SCROLL 1.84
0
#SCROLL 1.9
0
#SCROLL 1.95
0, //74
#BARLINEON
#SCROLL 2
3333,
600000000000000000000000000000000008000000000000,
#GOGOEND
22,
2
#SCROLL 3
4, //78
#SCROLL 1
#GOGOSTART
30220000,
1120,
500000000000000000000000000008000000000000000000,
1,
10220000,
1120,
5,
000008000000000000000000300000000000000000000000, //86
#GOGOEND
2022
#GOGOSTART
0000,
1120,
500000000000000000000000000008000000000000000000,
1,
10220000,
1120,
5,
000000000008000000000000300000000000000000000000, //94
1110,
1110,
1110,
1110,
1111,
1110,
1111,
1110, //102
10102001,
0220,
20202001,
00202007,
0,
0008,
5,
000000000000000000000000000008000000000000000000, //110
#GOGOEND
2201,
2101,
2101,
2,
2202,
2202,
20020020,
10
#SCROLL 2
78, //118
#SCROLL 1
#GOGOSTART
1111,
1110,
1111,
1110,
1111,
1111,
1111,
500000000008000000000000500000000008000000000000, //126
#GOGOEND
2002,
2222,
2002,
2222,
2002,
2222,
2002,
200200202020, //134
1222,
10020020,
1222,
12,
30040040,
30040040,
30030030,
3, //142
#GOGOSTART
500000000000000008000000000000000000100000100000,
12,
500000000000000008000000000000000000100000100000,
11,
500000000000000008000000000000000000100000100000,
12,
500000000000000008000000000000000000100000100000,
11, //150
1110,
1210,
1110,
1210,
3222,
3222,
1212,
1212, //158
10101011,
10101011,
10101011,
11
#SCROLL 2
78,
#SCROLL 1
10101011,
10101011,
10101011,
10101022, //166
#GOGOEND
#MEASURE 2/4
0,
#MEASURE 4/4
7,
0,
0008, //170
#GOGOEND
3,
2,
000000002200,
0,
0,
000000000000000000000000500000000000000000000008,
00222000,
0,
0, //179
#END
