//TJADB Project
TITLE:Jatetsu
TITLEJA:蛇鉄
SUBTITLE:--Daisuke Kurosawa
SUBTITLEJA:黒沢ダイスケ
BPM:316
WAVE:Jatetsu.ogg
OFFSET:-0.926
DEMOSTART:60.545

COURSE:Oni
LEVEL:10
BALLOON:20,2,5,15,46,20,2,5,15
SCOREINIT:960
SCOREDIFF:0
#START
#MEASURE 8/4
#SCROLL 0.75
70000008,
70087008,
1111000000000000,
000000000000000000000000000000000000200200000000100000000000200000000000200020002000100000000000, //4
1111000000000000,
200122100200100200222100,
1111200020111110,
2222201120201210, //8
30230130,
23013010,
40403142,
300000400000300000400000100100100100202020200200, //12
3121112111211121,
1221122112211221,
1222122212221222,
10222020101010102020102010000000, //16
3121112111211121,
1221122112211221,
1222122212221222,
1121221121221122,
100010001000100000100000200000200000200000200000500000000000000000000000000000000008000000000000, //21
300000000000200000000200101010100000200000300000,
#MEASURE 6/4
000000200000100000101010200000200200,
#MEASURE 8/4
100000000000200000000200101010100000200000400000,
#MEASURE 6/4
000000202020100000200200100200100000, //25
#MEASURE 8/4
300000000000200000000200101010100000200000300000,
#MEASURE 6/4
000000200000100000101010200000200200,
#MEASURE 8/4
100000000000200000000200101010100000200000400000,
#MEASURE 6/4
000000202020100000200200100100100000, //29
#MEASURE 8/4
300000000000200000100100202020100000200000300000,
#MEASURE 6/4
000000200000100000102020100000100100,
#MEASURE 8/4
100000000000200000100100202020100000200000400000,
#MEASURE 6/4
000000202020100000200200100200000000, //33
#MEASURE 8/4
300000000000200000100100202020100000200000300000,
#MEASURE 6/4
000000200000100000102020100000100100,
#MEASURE 8/4
100000000000200000100100202020100000200000400000, //36
30230130,
23013010,
40403142,
3040304011112222,
7008, //41
#GOGOSTART
11101020202010102000101020201000,
22202010101020201000202010102000,
11101010202020201110101020202020,
100000000000200000100000000000200000100000000000500000000000000000000000000000000008000000000000, //45
100222100200212100100200,
100000000000200000100000000000200000200000000000500000000008000000000000100000100000200000000000,
101010100100200100200200101010100100200100200200,
30000030000030004000222020201000, //49
500000000000000000000008000000000000200000200000200200200000100000100000200000200000100000100000,
2111221121112210,
2111201222102212,
200000000000100000200000000000000000500000000000000000000000000000000000000000000008000000000000, //53
2211221122122121,
2222111122112211,
2112112122122121,
22201022201020104000004000004000, //57
#GOGOEND
#MEASURE 6/4
7,
0,
0,
8, //61
101101011010,
110101101111,
101101011010,
110101101222, //65
101102011020,
110201102112,
101102011020,
110201102112, //69
102101021010,
210102101121,
102101021010,
210102101121, //73
#MEASURE 8/4
4001104001112211,
400000100100100000400000101010100100100100100100,
2,
0,
0,
000000000000000000000000000000000000000000000000000000000000000000000000500000000008000000000000, //79
30000000000000002200001000001000,
30220110,
3232,
300000000100000000100000400100100100202020200200, //83
#GOGOSTART
1121221121221122,
1122121122121122,
1121221121221122,
1122121122121122, //87
1111221122122121,
2222112211211212,
1112221122211122, //90
1021112210211222,
1021112010211220,
10002010101022201000201010202000,
300111200300222100400000, //94
#GOGOEND
70000008,
70087008,
1111222220111110,
#MEASURE 6/4
222220121210, //98
#MEASURE 14/4
202020200200100100100100200200100100100100202020200200100100100100200200100100100100,
#MEASURE 8/4
500000000000000000000000000000000000000000000000000000000000000000000000000000000008000000000000,
7008, //101
#MEASURE 4/4
#BPMCHANGE 158
#SCROLL 0.5
3
#SCROLL 0.55
1
#SCROLL 0.62
2
#SCROLL 0.69
2, //102
#SCROLL 0.67
1
#SCROLL 0.64
1
#SCROLL 0.62
1
#SCROLL 0.63
2
#SCROLL 0.66
2
#SCROLL 0.72
2, //103
#SCROLL 0.7
1
#SCROLL 0.76
1
#SCROLL 0.83
1
#SCROLL 0.92
1
#SCROLL 0.87
2
#SCROLL 0.82
2
#SCROLL 0.79
22, //104
#MEASURE 5/4
#BPMCHANGE 197.5
#SCROLL 0.66
1
#SCROLL 0.71
1
#SCROLL 0.78
1
#SCROLL 0.86
1
#SCROLL 0.81
1
#SCROLL 0.76
2
#SCROLL 0.73
22
#SCROLL 0.76
2
#SCROLL 0.81
2, //105
#MEASURE 4/4
#BPMCHANGE 158
#SCROLL 0.98
1
#SCROLL 1.05
1
#SCROLL 1.14
1
#SCROLL 1.23
1
#SCROLL 1.18
1
#SCROLL 1.11
1
#SCROLL 1.06
2
#SCROLL 1.14
2
#SCROLL 1.24
2
#SCROLL 1.37
2
#SCROLL 1.28
2
#SCROLL 1.21
2, //106
#SCROLL 1.15
1
#SCROLL 1.24
1
#SCROLL 1.34
1
#SCROLL 1.47
1
#SCROLL 1.37
1
#SCROLL 1.29
1
#SCROLL 1.23
1
#SCROLL 1.32
1
#SCROLL 1.43
2
#SCROLL 1.57
2
#SCROLL 1.46
2
#SCROLL 1.37
2
#SCROLL 1.31
2
#SCROLL 1.4
2
#SCROLL 1.52
2
#SCROLL 1.63
2, //107
#MEASURE 8/4
#BPMCHANGE 316
#SCROLL 0.75
500000000000000000000000000000000000000000000000000000000008000000000000300000000000000000000000,
#MEASURE 12/4
#GOGOSTART
101010100010101010001010101000101010100011101040,
#BARLINEOFF
#MEASURE 8/4
0,
#GOGOEND
#BARLINEON
0, //111
#END

COURSE:Hard
LEVEL:8
BALLOON:11,11,7,15,34,11,11,11,27
SCOREINIT:1700
SCOREDIFF:0
#START
#MEASURE 8/4
#SCROLL 0.75
600000000000000000000000000000000000000000000000000000000000000000000000000000000008000000000000,
7008,
1111000000000000,
00021122, //4
1111000000000000,
2011102010102020,
1111000010111010,
2022202010102020, //8
30130130,
13013030,
40403344,
7008, //12
1010111010201020,
1010111010201020,
1010111010201020,
1010111022202000, //16
1010111010201020,
1010111010201020,
1010111010201020,
1010111020202220,
500000000000000000000000000000000000000000000000000000000000000000000008000000000000000000000000, //21
3000100011101030,
#MEASURE 6/4
000020222020,
#MEASURE 8/4
3000100011101060,
#MEASURE 6/4
000000000000000000000000000000000000000000000008000000000000000000000000, //25
#MEASURE 8/4
3000100011101030,
#MEASURE 6/4
000020222020,
#MEASURE 8/4
3000100011101070,
#MEASURE 6/4
08, //29
#MEASURE 8/4
3000100022202030,
#MEASURE 6/4
000010222020,
#MEASURE 8/4
3000100022202060,
#MEASURE 6/4
000000000000000000000000000000000000000000000008000000000000000000000000, //33
#MEASURE 8/4
3000100022202030,
#MEASURE 6/4
000010222020,
#MEASURE 8/4
3000100022202000, //36
30130130,
13013030,
40404444,
7,
8, //41
#GOGOSTART
1011102010102000,
1011102010102000,
1110101022202020,
500000000000000000000000000000000000000000000000000000000000000000000008000000000000000000000000, //45
1011101020202020,
1011101020002020,
1010111010101110,
3003003040222020, //49
4000001011101010,
2010111020101000,
1110102220201110,
500000000000000000000000000000000000000000000000000000000000000000000008000000000000000000000000, //53
1010111010201020,
1010111010201020,
1010111020202220,
1011111030030030, //57
#GOGOEND
#MEASURE 6/4
7,
0,
0,
8, //61
101101011010,
101,
101101011010,
102, //65
101101011010,
100000201110,
101101011010,
100000102220, //69
101101011010,
100000201110,
101101011010,
100000102220, //73
#MEASURE 8/4
500000000000000000000000000000000000000000000000000000000000000000000008000000000000000000000000,
600000000000000000000000000000000000000000000000000000000000000000000008000000000000000000000000,
4,
0,
0,
0, //79
3,
3,
33,
3003003030004000, //83
#GOGOSTART
1010111020101110,
1010111020101110,
1010111020101110,
1010111020101000, //87
1010111010201020,
1010111010201020,
1010111020202220, //90
1000201110002011,
11221212,
1000201110102020,
30330440, //94
#GOGOEND
600000000000000000000000000000000000000000000000000000000000000000000008000000000000000000000000,
7008,
1111000010111010,
#MEASURE 6/4
202220102220, //98
#MEASURE 14/4
70000087000008,
#MEASURE 8/4
500000000000000000000000000000000000000000000000000000000000000000000000000000000000000000000008,
0, //101
#MEASURE 4/4
#BPMCHANGE 158
#SCROLL 0.5
1111, //102
#SCROLL 0.67
222200, //103
#SCROLL 0.7
11111110, //104
#MEASURE 5/4
#BPMCHANGE 197.5
#SCROLL 0.66
2222022220, //105
#MEASURE 4/4
#BPMCHANGE 158
#SCROLL 0.98
111100111100, //106
#SCROLL 1.15
2220222022202220, //107
#MEASURE 8/4
#BPMCHANGE 316
#SCROLL 0.75
500000000000000000000000000000000000000000000000000000000000000000000008000000000000000000000000,
#MEASURE 12/4
#GOGOSTART
9,
#BARLINEOFF
#MEASURE 8/4
00090000,
#GOGOEND
#BARLINEON
8, //111
#END

COURSE:Normal
LEVEL:7
BALLOON:6,6,4,9,20,6,6,6,20
SCOREINIT:2740
SCOREDIFF:0
#START
#MEASURE 8/4
#SCROLL 0.75
600000000000000000000000000000000000000000000000000000000000000000000000000000000008000000000000,
7008,
11000000,
00022220, //4
11000000,
22221020,
11000000,
22022220, //8
30030030,
03003030,
40404444,
7008, //12
11111110,
22222220,
11111110,
22222020, //16
11111110,
22222220,
11111110,
20222022,
500000000000000000000000000000000000000000000000000000000000000000000008000000000000000000000000, //21
30101013,
#MEASURE 6/4
012,
#MEASURE 8/4
30101016,
#MEASURE 6/4
000000000000000000000000000000000000000000000008000000000000000000000000, //25
#MEASURE 8/4
30101013,
#MEASURE 6/4
011,
#MEASURE 8/4
30101017,
#MEASURE 6/4
08, //29
#MEASURE 8/4
30102013,
#MEASURE 6/4
012,
#MEASURE 8/4
30102016,
#MEASURE 6/4
000000000000000000000000000000000000000000000008000000000000000000000000, //33
#MEASURE 8/4
30102013,
#MEASURE 6/4
012,
#MEASURE 8/4
3121, //36
30030030,
03003030,
40404444,
7,
8, //41
#GOGOSTART
1001001010102000,
1001001010000000,
11102220,
500000000000000000000000000000000000000000000000000000000000000000000008000000000000000000000000, //45
11102020,
1001001010000000,
11221120,
3003003030003000, //49
40001111,
20111110,
11102220,
500000000000000000000000000000000000000000000000000000000000000000000008000000000000000000000000, //53
11111120,
11111120,
11102220,
1010101030030030, //57
#GOGOEND
#MEASURE 6/4
7,
0,
0,
8, //61
101,
102,
101,
102, //65
112,
100110,
112,
100220, //69
112,
100110,
112,
100220, //73
#MEASURE 8/4
500000000000000000000000000000000000000000000000000000000000000000000008000000000000000000000000,
600000000000000000000000000000000000000000000000000000000000000000000008000000000000000000000000,
4,
0,
0,
0, //79
3,
3,
33,
3003003030000000, //83
#GOGOSTART
11221120,
11221120,
11221120,
11221120, //87
10111120,
10111120,
11201120, //90
10111011,
10220220,
10111020,
30030400, //94
#GOGOEND
600000000000000000000000000000000000000000000000000000000000000000000008000000000000000000000000,
7008,
11000000,
#MEASURE 6/4
220220, //98
#MEASURE 14/4
70000087000008,
#MEASURE 8/4
500000000000000000000000000000000000000000000000000000000000000000000000000000000000000000000008,
0, //101
#MEASURE 4/4
#BPMCHANGE 158
#SCROLL 0.5
1111, //102
#SCROLL 0.67
22, //103
#SCROLL 0.7
1111, //104
#MEASURE 5/4
#BPMCHANGE 197.5
#SCROLL 0.66
22, //105
#MEASURE 4/4
#BPMCHANGE 158
#SCROLL 0.98
1111, //106
#SCROLL 1.15
22202220, //107
#MEASURE 8/4
#BPMCHANGE 316
#SCROLL 0.75
500000000000000000000000000000000000000000000000000000000000000000000008000000000000000000000000,
#MEASURE 12/4
#GOGOSTART
9,
#BARLINEOFF
#MEASURE 8/4
00090000,
#GOGOEND
#BARLINEON
8, //111
#END

COURSE:Easy
LEVEL:5
BALLOON:5,5,4,7,17,5,5,5,16
SCOREINIT:3500
SCOREDIFF:0
#START
#MEASURE 8/4
#SCROLL 0.75
600000000000000000000000000000000000000000000000000000000000000000000000000000000008000000000000,
7008,
11000000,
0022, //4
11000000,
2222,
11000000,
1022, //8
30030030,
03003030,
4444,
7008, //12
11101010,
11101010,
11101010,
2220, //16
11101010,
11101010,
11101010,
2222,
500000000000000000000000000000000000000000000000000000000000000000000008000000000000000000000000, //21
30101003,
#MEASURE 6/4
011,
#MEASURE 8/4
30101006,
#MEASURE 6/4
000000000000000000000000000000000000000000000008000000000000000000000000, //25
#MEASURE 8/4
30101003,
#MEASURE 6/4
011,
#MEASURE 8/4
30101007,
#MEASURE 6/4
08, //29
#MEASURE 8/4
30102003,
#MEASURE 6/4
012,
#MEASURE 8/4
30102006,
#MEASURE 6/4
000000000000000000000000000000000000000000000008000000000000000000000000, //33
#MEASURE 8/4
30102003,
#MEASURE 6/4
012,
#MEASURE 8/4
3120, //36
30030030,
03003030,
4444,
7,
8, //41
#GOGOSTART
10111010,
10111000,
11101110,
500000000000000000000000000000000000000000000000000000000000000000000008000000000000000000000000, //45
1122,
10111000,
11101110,
3003003030000000, //49
40001110,
10101110,
1122,
500000000000000000000000000000000000000000000000000000000000000000000008000000000000000000000000, //53
10111010,
10111010,
11101110,
1010100030030000, //57
#GOGOEND
#MEASURE 6/4
7,
0,
0,
8, //61
101,
1,
101,
1, //65
111,
101,
111,
102, //69
111,
101,
111,
102, //73
#MEASURE 8/4
500000000000000000000000000000000000000000000000000000000000000000000008000000000000000000000000,
600000000000000000000000000000000000000000000000000000000000000000000008000000000000000000000000,
4,
0,
0,
0, //79
3,
3,
33,
34, //83
#GOGOSTART
11101110,
22202220,
11101110,
22202220, //87
10101110,
10101110,
2222, //90
1011,
10111010,
11101010,
30030000, //94
#GOGOEND
600000000000000000000000000000000000000000000000000000000000000000000008000000000000000000000000,
7008,
11000000,
#MEASURE 6/4
222, //98
#MEASURE 14/4
70000087000008,
#MEASURE 8/4
500000000000000000000000000000000000000000000000000000000000000000000000000000000000000000000008,
0, //101
#MEASURE 4/4
#BPMCHANGE 158
#SCROLL 0.5
1110, //102
#SCROLL 0.67
2, //103
#SCROLL 0.7
1110, //104
#MEASURE 5/4
#BPMCHANGE 197.5
#SCROLL 0.66
2, //105
#MEASURE 4/4
#BPMCHANGE 158
#SCROLL 0.98
1111, //106
#SCROLL 1.15
2222, //107
#MEASURE 8/4
#BPMCHANGE 316
#SCROLL 0.75
500000000000000000000000000000000000000000000000000000000000000000000008000000000000000000000000,
#MEASURE 12/4
#GOGOSTART
9,
#BARLINEOFF
#MEASURE 8/4
00090000,
#GOGOEND
#BARLINEON
8, //111
#END
