//TJADB Project
TITLE:Opera 「Recollect Blue」
TITLEJA:歌劇「リコレクトブルー」
SUBTITLE:--Lead: Amitie, Production/Script: Lichtou Theatrical Troupe
SUBTITLEJA:主演:アミティ 演出/脚本:劇団リヒトウ
BPM:132
WAVE:Opera Recollect Blue.ogg
OFFSET:-0.655
DEMOSTART:93.299

COURSE:Oni
LEVEL:9
BALLOON:16
SCOREINIT:1300
SCOREDIFF:0
#START
#MEASURE 1/32
0,
#MEASURE 23/32
0,
#MEASURE 3/4
102,
102220,
102,
102220,
112,
102220,
112,
#MEASURE 5/4
1022200000, //10
#MEASURE 4/4
#BPMCHANGE 183.15
#GOGOSTART
2011102011102020,
1022101120201020,
2011102011102020,
1022101120201020,
2011102011102020,
1022202220201020,
2011201120112120,
2211221121212121,
#GOGOEND
0, //19
#MEASURE 3/4
100222,
100222,
102220002000,
102022,
102020002220,
112022,
102220200010,
200020102022,
102020002220,
112022,
102220202000,
102222, //31
#MEASURE 4/4
1211102110102220,
1022101120111020,
1211102110102220,
2211221112221222,
1011102010201011,
102010201110
#SCROLL 2
4000,
#SCROLL 1
1011102010201011,
102010201110
#SCROLL 3
4000, //39
#SCROLL 1
1011102010201011,
1020102011102020,
1011101020001010,
2022202010002220, //43
#MEASURE 3/4
300011101010,
300011101010,
300011101010,
300011101110,
101112201220,
101112201220, //49
#MEASURE 6/4
3,
#BARLINEOFF
#BPMCHANGE 150
#SCROLL 8
000000000000000000000000000000000000000000000000500000000000000008000000,
#BARLINEON
#MEASURE 8/4
#BPMCHANGE 153
#SCROLL 0.5
20111020101020111020101021112110,
20111020101020111020101021112110,
#BPMCHANGE 173
#SCROLL 0.63
20111020101020111020101021112110,
#BPMCHANGE 183
#SCROLL 0.8
20111020101020111020101021112110, //55
#MEASURE 4/4
#BPMCHANGE 193
#SCROLL 1
302220
#SCROLL 1.08
302220
#SCROLL 1.18
3022,
20
#SCROLL 1.28
302220
#SCROLL 1.38
30222220,
#SCROLL 4
6,
#BPMCHANGE 160
0,
0000000000000800,
#MEASURE 13/8
0000000400000, //61
#MEASURE 1/32
#SCROLL 1.5
0,
#SCROLL 1.55
0,
#SCROLL 1.61
0,
#SCROLL 1.66
0,
#SCROLL 1.72
0,
#SCROLL 1.78
0,
#SCROLL 1.84
0,
#SCROLL 1.91
0,
#SCROLL 1.97
0,
#SCROLL 2.04
0,
#SCROLL 2.11
0,
#SCROLL 2.19
0, //73
#BPMCHANGE 183.15
#SCROLL 1.98
0,
#SCROLL 2.05
0,
#SCROLL 2.12
0,
#SCROLL 2.19
0,
#SCROLL 2.27
0,
#SCROLL 2.35
0,
#SCROLL 2.43
0,
#SCROLL 2.51
0,
#SCROLL 2.6
0,
#SCROLL 2.69
0,
#SCROLL 2.79
0,
#SCROLL 2.88
0, //85
#SCROLL 2.98
0,
#SCROLL 3.09
0,
#SCROLL 3.19
0,
#SCROLL 3.31
0,
#SCROLL 3.42
0,
#SCROLL 3.54
0,
#SCROLL 3.66
0,
#SCROLL 3.79
0,
#SCROLL 3.92
0,
#SCROLL 4.06
0,
#SCROLL 4.2
0,
#SCROLL 4.35
0, //97
#MEASURE 3/4
#SCROLL 1
100220,
100020002022,
102220202000,
#MEASURE 4/4
#GOGOSTART
3333,
3333,
7,
#GOGOEND
8, //104
#GOGOSTART
1110201010201110,
2010102011222020,
1110201010201110,
2220102011021020,
1110201010201110,
2010102011121020,
1121201121201020,
2212102212102010, //112
1110201010201110,
2010102011222020,
1022203000300030,
0022122212221222,
#GOGOEND
20020020,
0020002220020020,
20020020,
2022221030030030, //120
#GOGOSTART
2211221122112211,
2222111122112211,
2222221111112211,
1122112212121212,
#GOGOEND
0,
#SCROLL 0.5
0,
#SCROLL 1
11113333, //127
#GOGOSTART
2011201022102110,
2022101120221120,
2011201022102110,
2022101120221120,
2011112022112211,
2022211022221120,
3,
0,
00000
#GOGOEND
200,
0, //137
#END

COURSE:Hard
LEVEL:7
BALLOON:17,11
SCOREINIT:2390
SCOREDIFF:0
#START
#MEASURE 1/32
0,
#MEASURE 23/32
0,
#MEASURE 3/4
101,
102220,
101,
102220,
112,
102220,
112,
#MEASURE 5/4
1022200000, //10
#MEASURE 4/4
#BPMCHANGE 183.15
#GOGOSTART
21121122,
0000002220202000,
21121122,
0000002220202000,
21121122,
0000002220202000,
21212121,
500000000000000000000000000000000000000008000000,
#GOGOEND
0, //19
#MEASURE 3/4
100222,
100222,
122,
100022,
122002,
112022,
102201,
202122,
122022,
122,
122,
102022, //31
#MEASURE 4/4
5,
000000000000000000000008000000000000000000000000,
7,
08,
1011101010001010,
011010
#SCROLL 2
40,
#SCROLL 1
1011101010001010,
010110
#SCROLL 2
40, //39
#SCROLL 1
1011101010001010,
01010122,
5,
000000000000000000000000000008000000000000000000, //43
#MEASURE 3/4
300011101000,
300011101000,
300011101000,
300011101000,
6,
000000000000000000000000000008000000, //49
#MEASURE 6/4
3,
#BARLINEOFF
#BPMCHANGE 150
#SCROLL 8
000000000000000000000000000000000000000000000000500000000000000008000000,
#BARLINEON
#MEASURE 8/4
#BPMCHANGE 153
#SCROLL 0.5
2011102011101120,
2011102011101120,
#BPMCHANGE 173
#SCROLL 0.63
2011102011101120,
#BPMCHANGE 183
#SCROLL 0.8
2011102011101120, //55
#MEASURE 4/4
#BPMCHANGE 193
#SCROLL 1
300
#SCROLL 1.08
300
#SCROLL 1.18
30,
0
#SCROLL 1.28
300
#SCROLL 1.38
3000,
#SCROLL 4
6,
#BPMCHANGE 160
0,
0000000000000800,
#MEASURE 13/8
0000000
#SCROLL 2
400000, //61
#MEASURE 1/32
#SCROLL 1.5
0,
#SCROLL 1.55
0,
#SCROLL 1.61
0,
#SCROLL 1.66
0,
#SCROLL 1.72
0,
#SCROLL 1.78
0,
#SCROLL 1.84
0,
#SCROLL 1.91
0,
#SCROLL 1.97
0,
#SCROLL 2.04
0,
#SCROLL 2.11
0,
#SCROLL 2.19
0, //73
#BPMCHANGE 183.15
#SCROLL 1.98
0,
#SCROLL 2.05
0,
#SCROLL 2.12
0,
#SCROLL 2.19
0,
#SCROLL 2.27
0,
#SCROLL 2.35
0,
#SCROLL 2.43
0,
#SCROLL 2.51
0,
#SCROLL 2.6
0,
#SCROLL 2.69
0,
#SCROLL 2.79
0,
#SCROLL 2.88
0, //85
#SCROLL 2.98
0,
#SCROLL 3.09
0,
#SCROLL 3.19
0,
#SCROLL 3.31
0,
#SCROLL 3.42
0,
#SCROLL 3.54
0,
#SCROLL 3.66
0,
#SCROLL 3.79
0,
#SCROLL 3.92
0,
#SCROLL 4.06
0,
#SCROLL 4.2
0,
#SCROLL 4.35
0, //97
#MEASURE 3/4
#SCROLL 1
100220,
122,
102220,
#MEASURE 4/4
#GOGOSTART
3333,
3333,
9009,
#GOGOEND
8, //104
#GOGOSTART
1110101000201110,
11011020,
1110101000201110,
11012020,
1110101000201110,
11011020,
1110101000105000,
000000000000000000000000000000000008000000000000, //112
1110101000201110,
1010002010010010,
30330306,
000000000000000000000000000008000000000000000000,
#GOGOEND
20020020,
0020002020020020,
20020020,
0020202030030030, //120
#GOGOSTART
1110001110001110,
0011101010001000,
1110001110005000,
000000000000000000000000000000000000000000000008,
#GOGOEND
0,
#SCROLL 0.5
0,
#SCROLL 1
11113333, //127
#GOGOSTART
21212121,
2010102220202000,
21212121,
2010102220202000,
1022201020202000,
1022201022202000,
3,
0,
00000
#GOGOEND
200,
0, //137
#END

COURSE:Normal
LEVEL:6
BALLOON:13,8,6
SCOREINIT:3750
SCOREDIFF:0
#START
#MEASURE 1/32
0,
#MEASURE 23/32
0,
#MEASURE 3/4
101,
102220,
101,
102220,
112,
102220,
112,
#MEASURE 5/4
1022200000, //10
#MEASURE 4/4
#BPMCHANGE 183.15
#GOGOSTART
10110111,
00102220,
10110111,
00102220,
10110111,
00102220,
10101111,
500000000000000000000000000000000000000008000000,
#GOGOEND
0, //19
#MEASURE 3/4
2,
2,
222,
1,
2,
2,
12,
12,
222020,
2,
222020,
102, //31
#MEASURE 4/4
5,
000000000000000000000008000000000000000000000000,
7,
08,
10111011,
01101040,
10111011,
01011040, //39
10111011,
01010120,
5,
000000000000000000000000000008000000000000000000, //43
#MEASURE 3/4
311,
311,
311,
311,
6,
000000000000000000000000000008000000, //49
#MEASURE 6/4
3,
#BARLINEOFF
#BPMCHANGE 150
#SCROLL 8
000000000000000000000000000000000000000000000000500000000000000008000000,
#BARLINEON
#MEASURE 8/4
#BPMCHANGE 153
#SCROLL 0.5
21121112,
21121112,
#BPMCHANGE 173
#SCROLL 0.63
21121112,
#BPMCHANGE 183
#SCROLL 0.8
21121112, //55
#MEASURE 4/4
#BPMCHANGE 193
#SCROLL 1
300
#SCROLL 1.08
300
#SCROLL 1.18
30,
0
#SCROLL 1.28
300
#SCROLL 1.38
3000,
#SCROLL 4
6,
#BPMCHANGE 160
0,
0000000000000800,
#MEASURE 13/8
0000000
#SCROLL 2
400000, //61
#MEASURE 1/32
#SCROLL 1.5
0,
#SCROLL 1.55
0,
#SCROLL 1.61
0,
#SCROLL 1.66
0,
#SCROLL 1.72
0,
#SCROLL 1.78
0,
#SCROLL 1.84
0,
#SCROLL 1.91
0,
#SCROLL 1.97
0,
#SCROLL 2.04
0,
#SCROLL 2.11
0,
#SCROLL 2.19
0, //73
#BPMCHANGE 183.15
#SCROLL 1.98
0,
#SCROLL 2.05
0,
#SCROLL 2.12
0,
#SCROLL 2.19
0,
#SCROLL 2.27
0,
#SCROLL 2.35
0,
#SCROLL 2.43
0,
#SCROLL 2.51
0,
#SCROLL 2.6
0,
#SCROLL 2.69
0,
#SCROLL 2.79
0,
#SCROLL 2.88
0, //85
#SCROLL 2.98
0,
#SCROLL 3.09
0,
#SCROLL 3.19
0,
#SCROLL 3.31
0,
#SCROLL 3.42
0,
#SCROLL 3.54
0,
#SCROLL 3.66
0,
#SCROLL 3.79
0,
#SCROLL 3.92
0,
#SCROLL 4.06
0,
#SCROLL 4.2
0,
#SCROLL 4.35
0, //97
#MEASURE 3/4
#SCROLL 1
102,
102,
102,
#MEASURE 4/4
#GOGOSTART
3333,
3333,
9009,
#GOGOEND
8, //104
#GOGOSTART
10110210,
11011020,
10110211,
0022,
10110210,
11011020,
10110150,
000000000000000000000000000000000008000000000000, //112
10110210,
11021020,
30330306,
000000000000000000000000000008000000000000000000,
#GOGOEND
2,
2,
2,
2, //120
#GOGOSTART
30030030,
01111010,
30030050,
000000000000000000000000000000000000000000000008,
#GOGOEND
0,
#SCROLL 0.5
0,
#SCROLL 1
7008, //127
#GOGOSTART
10111010,
10102220,
10111010,
10102220,
5,
000000000000000000000000000000000008000000000000,
3,
0,
00000
#GOGOEND
200,
0, //137
#END

COURSE:Easy
LEVEL:5
BALLOON:10,6,4
SCOREINIT:5740
SCOREDIFF:0
#START
#MEASURE 1/32
0,
#MEASURE 23/32
0,
#MEASURE 3/4
101,
102,
101,
102,
102,
102,
102,
#MEASURE 5/4
10200, //10
#MEASURE 4/4
#BPMCHANGE 183.15
#GOGOSTART
10010010,
0022,
10010010,
0022,
10010010,
0022,
1111,
500000000000000000000000000000000000000008000000,
#GOGOEND
0, //19
#MEASURE 3/4
2,
2,
202,
2,
2,
2,
12,
12,
2,
2,
202,
2, //31
#MEASURE 4/4
5,
000000000000000000000008000000000000000000000000,
7,
08,
10101001,
0114,
10101001,
0114, //39
10101001,
0110,
5,
000000000000000000000000000008000000000000000000, //43
#MEASURE 3/4
3,
3,
3,
3,
6,
000000000000000008000000000000000000, //49
#MEASURE 6/4
3,
#BARLINEOFF
#BPMCHANGE 150
#SCROLL 8
000000000000000000000000000000000000000000000000500000000000000008000000,
#BARLINEON
#MEASURE 8/4
#BPMCHANGE 153
#SCROLL 0.5
10110110,
10110110,
#BPMCHANGE 173
#SCROLL 0.63
10110110,
#BPMCHANGE 183
#SCROLL 0.8
10110110, //55
#MEASURE 4/4
#BPMCHANGE 193
#SCROLL 1
300
#SCROLL 1.08
300
#SCROLL 1.18
30,
0
#SCROLL 1.28
300
#SCROLL 1.38
3000,
#SCROLL 4
6,
#BPMCHANGE 160
0,
0000000000000800,
#MEASURE 13/8
0000000
#SCROLL 2
400000, //61
#MEASURE 1/32
#SCROLL 1.5
0,
#SCROLL 1.55
0,
#SCROLL 1.61
0,
#SCROLL 1.66
0,
#SCROLL 1.72
0,
#SCROLL 1.78
0,
#SCROLL 1.84
0,
#SCROLL 1.91
0,
#SCROLL 1.97
0,
#SCROLL 2.04
0,
#SCROLL 2.11
0,
#SCROLL 2.19
0, //73
#BPMCHANGE 183.15
#SCROLL 1.98
0,
#SCROLL 2.05
0,
#SCROLL 2.12
0,
#SCROLL 2.19
0,
#SCROLL 2.27
0,
#SCROLL 2.35
0,
#SCROLL 2.43
0,
#SCROLL 2.51
0,
#SCROLL 2.6
0,
#SCROLL 2.69
0,
#SCROLL 2.79
0,
#SCROLL 2.88
0, //85
#SCROLL 2.98
0,
#SCROLL 3.09
0,
#SCROLL 3.19
0,
#SCROLL 3.31
0,
#SCROLL 3.42
0,
#SCROLL 3.54
0,
#SCROLL 3.66
0,
#SCROLL 3.79
0,
#SCROLL 3.92
0,
#SCROLL 4.06
0,
#SCROLL 4.2
0,
#SCROLL 4.35
0, //97
#MEASURE 3/4
#SCROLL 1
1,
1,
1,
#MEASURE 4/4
#GOGOSTART
3333,
3333,
9009,
#GOGOEND
8, //104
#GOGOSTART
10110010,
11001000,
10110010,
0022,
10110010,
11001000,
10110050,
000000000000000000000000000008000000000000000000, //112
10110010,
11001000,
30330306,
000000000000000000000000000008000000000000000000,
#GOGOEND
2,
2,
2,
2, //120
#GOGOSTART
30030030,
0,
30030050,
000000000000000000000000000000000000000000000008,
#GOGOEND
0,
#SCROLL 0.5
0,
#SCROLL 1
7008, //127
#GOGOSTART
1111,
1120,
1111,
1120,
5,
000000000000000000000000000008000000000000000000,
3,
0,
00000
#GOGOEND
200,
0, //137
#END
