//TJADB Project
TITLE:Singularity Game
TITLEJA:Singularity Game
SUBTITLE:--oxygenvil
SUBTITLEJA:oxygenvil
BPM:180
WAVE:Singularity Game.ogg
OFFSET:-0.365
DEMOSTART:61.699

COURSE:Oni
LEVEL:10
BALLOON:32
SCOREINIT:1230
SCOREDIFF:0
#START
100000100000200200200100100000200000202020100000,
0010222110202210,
0010222112221020,
000000100000100200100000200020001000200000000000,
4011202110200010,
2112112112112010,
2121212120111020,
110010002200200011001010, //8
300000000000200000100100100000202000200000100000,
0010221110201020,
202000000000200200100000200000100000100000200000,
000000200200100000100000200010002000100020000000,
202020200200100000100000200000100200000000100000,
000000200200100000200200100000100100100000202000,
000000100100100000202000000000200100100000202000,
000000200200100000100000202000002000100020200000, //16
#BPMCHANGE 160
#SCROLL 1.13
1
#BPMCHANGE 205.714
#SCROLL 0.88
0
#BPMCHANGE 160
#SCROLL 1.13
2
#BPMCHANGE 205.714
#SCROLL 0.88
0
#BPMCHANGE 160
#SCROLL 1.13
2
#BPMCHANGE 205.714
#SCROLL 0.88
0
#BPMCHANGE 160
#SCROLL 1.13
2
#BPMCHANGE 205.714
#SCROLL 0.88
2, //17
#BPMCHANGE 160
#SCROLL 1.13
4
#BPMCHANGE 205.714
#SCROLL 0.88
1
#BPMCHANGE 160
#SCROLL 1.13
1
#BPMCHANGE 205.714
#SCROLL 0.88
0
#BPMCHANGE 160
#SCROLL 1.13
2
#BPMCHANGE 205.714
#SCROLL 0.88
1
#BPMCHANGE 160
#SCROLL 1.13
0
#BPMCHANGE 205.714
#SCROLL 0.88
1, //18
#BPMCHANGE 160
#SCROLL 1.13
2
#BPMCHANGE 205.714
#SCROLL 0.88
1
#BPMCHANGE 160
#SCROLL 1.13
1
#BPMCHANGE 205.714
#SCROLL 0.88
2
#BPMCHANGE 160
#SCROLL 1.13
0
#BPMCHANGE 205.714
#SCROLL 0.88
2
#BPMCHANGE 160
#SCROLL 1.13
0
#BPMCHANGE 205.714
#SCROLL 0.88
1, //19
#BPMCHANGE 160
#SCROLL 1.13
200
#BPMCHANGE 205.714
#SCROLL 0.88
100
#BPMCHANGE 180
#SCROLL 1
201010
#BPMCHANGE 160
#SCROLL 1.13
200
#BPMCHANGE 205.714
#SCROLL 0.88
100
#BPMCHANGE 160
#SCROLL 1.13
000
#BPMCHANGE 205.714
#SCROLL 0.88
100, //20
#BPMCHANGE 160
#SCROLL 1.13
22
#BPMCHANGE 205.714
#SCROLL 0.88
20
#BPMCHANGE 160
#SCROLL 1.13
10
#BPMCHANGE 205.714
#SCROLL 0.88
20
#BPMCHANGE 160
#SCROLL 1.13
00
#BPMCHANGE 205.714
#SCROLL 0.88
20
#BPMCHANGE 160
#SCROLL 1.13
20
#BPMCHANGE 205.714
#SCROLL 0.88
10, //21
#BPMCHANGE 160
#SCROLL 1.13
2
#BPMCHANGE 205.714
#SCROLL 0.88
1
#BPMCHANGE 160
#SCROLL 1.13
1
#BPMCHANGE 205.714
#SCROLL 0.88
0
#BPMCHANGE 160
#SCROLL 1.13
2
#BPMCHANGE 205.714
#SCROLL 0.88
1
#BPMCHANGE 160
#SCROLL 1.13
0
#BPMCHANGE 205.714
#SCROLL 0.88
1, //22
#BPMCHANGE 160
#SCROLL 1.13
2
#BPMCHANGE 205.714
#SCROLL 0.88
1
#BPMCHANGE 160
#SCROLL 1.13
1
#BPMCHANGE 205.714
#SCROLL 0.88
2
#BPMCHANGE 160
#SCROLL 1.13
1
#BPMCHANGE 205.714
#SCROLL 0.88
1
#BPMCHANGE 160
#SCROLL 1.13
2
#BPMCHANGE 205.714
#SCROLL 0.88
2, //23
#BPMCHANGE 160
#SCROLL 1.13
10
#BPMCHANGE 205.714
#SCROLL 0.88
20
#BPMCHANGE 160
#SCROLL 1.13
20
#BPMCHANGE 205.714
#SCROLL 0.88
10
#BPMCHANGE 160
#SCROLL 1.13
20
#BPMCHANGE 205.714
#SCROLL 0.88
11
#BPMCHANGE 160
#SCROLL 1.13
10
#BPMCHANGE 205.714
#SCROLL 0.88
20, //24
#BPMCHANGE 160
#SCROLL 1.13
1
#BPMCHANGE 205.714
#SCROLL 0.88
2
#BPMCHANGE 160
#SCROLL 1.13
0
#BPMCHANGE 205.714
#SCROLL 0.88
2
#BPMCHANGE 160
#SCROLL 1.13
1
#BPMCHANGE 205.714
#SCROLL 0.88
2
#BPMCHANGE 160
#SCROLL 1.13
0
#BPMCHANGE 205.714
#SCROLL 0.88
2, //25
#BPMCHANGE 180
#SCROLL 1
7,
#MEASURE 8/4
00000000000000008000002020020020, //27
#MEASURE 4/4
#GOGOSTART
3001001021021122,
1000101122122022,
1001201000102210,
0010201022122010,
2011202201201120,
#MEASURE 9/8
10221020
#BPMCHANGE 225
#SCROLL 0.8
2010121020,
#MEASURE 4/4
#BPMCHANGE 180
#SCROLL 1
1002102000221120,
100000200100200100200100200000100200101010200000, //35
#GOGOEND
3003004000300300,
40001010
#GOGOSTART
40020012,
1001201000102210,
0010221122212010,
3003004004001111,
2012012112001121,
100000000100200000002000000020000000102000100000,
2111221022112222,
#GOGOEND
1,
22000000200020202020202020202020, //45
100000100000200200200100100000200000202020100000,
0010222110222210,
0010222112221020,
000000100000100200100000200020001000200000000000,
4011202110201111,
2112112112112010,
20102010201020102000200000001100,
0012102000102010, //53
4021121120120210,
1020121120102111,
22000010102200001010220000101010,
2211221120020020,
#MEASURE 6/4
000030000000002020020020, //58
#MEASURE 4/4
#GOGOSTART
3001001021021122,
1000101122122022,
1001201000102210,
0011201022122021,
200000100100200000100100200000001000100020000000,
#MEASURE 15/16
100000002000200010002000
#BPMCHANGE 157.5
#SCROLL 1.14
100000200200100200100,
#MEASURE 4/4
#BPMCHANGE 180
#SCROLL 1
1002102000221120,
100000200100200100200100200000100200101010200000, //66
#GOGOEND
3003004000300300,
400000000000101010100000
#GOGOSTART
400000000200100100200200,
1001201000202210,
000000100100200200100100200200200100202020100000,
3003004004001111,
200000000200000100200100100200000000101010200000,
3012012012002111,
200000000200100000200000200000003000000030000000,
600000000000000000000000000000000000000008000000,
1122221121222222, //76
#GOGOEND
100000100000200200200100100000200000202020100000,
0010222110222210,
0010222112221020,
000000100000100200100000200020001000200000000000,
#GOGOSTART
4011202110201111,
2112112112112010,
200100200100200100200100200000100100101010200000,
110010002200200110100200,
600000000000000000000000000000000008000000
#GOGOEND
300000,
0,
0, //87
#END

COURSE:Hard
LEVEL:7
BALLOON:25,8
SCOREINIT:2140
SCOREDIFF:0
#START
1000222020200010,
0000222020200010,
0000222020200010,
02212040,
1011101010200010,
2022202020202000,
1011101010000000,
444, //8
3000201110100010,
01101212,
1000111010100020,
000100100000200020002000,
00111102,
0011101010001020,
00120012,
000200200100200020002000, //16
#BPMCHANGE 160
#SCROLL 1.13
1
#BPMCHANGE 205.714
#SCROLL 0.88
0
#BPMCHANGE 160
#SCROLL 1.13
1
#BPMCHANGE 205.714
#SCROLL 0.88
0
#BPMCHANGE 160
#SCROLL 1.13
2
#BPMCHANGE 205.714
#SCROLL 0.88
0
#BPMCHANGE 160
#SCROLL 1.13
2
#BPMCHANGE 205.714
#SCROLL 0.88
0, //17
#BPMCHANGE 160
#SCROLL 1.13
3
#BPMCHANGE 205.714
#SCROLL 0.88
0
#BPMCHANGE 160
#SCROLL 1.13
0
#BPMCHANGE 205.714
#SCROLL 0.88
0
#BPMCHANGE 160
#SCROLL 1.13
2
#BPMCHANGE 205.714
#SCROLL 0.88
2
#BPMCHANGE 160
#SCROLL 1.13
0
#BPMCHANGE 205.714
#SCROLL 0.88
2, //18
#BPMCHANGE 160
#SCROLL 1.13
1
#BPMCHANGE 205.714
#SCROLL 0.88
0
#BPMCHANGE 160
#SCROLL 1.13
1
#BPMCHANGE 205.714
#SCROLL 0.88
1
#BPMCHANGE 160
#SCROLL 1.13
1
#BPMCHANGE 205.714
#SCROLL 0.88
2
#BPMCHANGE 160
#SCROLL 1.13
0
#BPMCHANGE 205.714
#SCROLL 0.88
0, //19
#BPMCHANGE 160
#SCROLL 1.13
1
#BPMCHANGE 205.714
#SCROLL 0.88
0
#BPMCHANGE 180
#SCROLL 1
00
#BPMCHANGE 160
#SCROLL 1.13
2
#BPMCHANGE 205.714
#SCROLL 0.88
2
#BPMCHANGE 160
#SCROLL 1.13
0
#BPMCHANGE 205.714
#SCROLL 0.88
2, //20
#BPMCHANGE 160
#SCROLL 1.13
1
#BPMCHANGE 205.714
#SCROLL 0.88
0
#BPMCHANGE 160
#SCROLL 1.13
1
#BPMCHANGE 205.714
#SCROLL 0.88
1
#BPMCHANGE 160
#SCROLL 1.13
1
#BPMCHANGE 205.714
#SCROLL 0.88
2
#BPMCHANGE 160
#SCROLL 1.13
0
#BPMCHANGE 205.714
#SCROLL 0.88
0, //21
#BPMCHANGE 160
#SCROLL 1.13
1
#BPMCHANGE 205.714
#SCROLL 0.88
0
#BPMCHANGE 160
#SCROLL 1.13
0
#BPMCHANGE 205.714
#SCROLL 0.88
0
#BPMCHANGE 160
#SCROLL 1.13
2
#BPMCHANGE 205.714
#SCROLL 0.88
2
#BPMCHANGE 160
#SCROLL 1.13
0
#BPMCHANGE 205.714
#SCROLL 0.88
2, //22
#BPMCHANGE 160
#SCROLL 1.13
1
#BPMCHANGE 205.714
#SCROLL 0.88
0
#BPMCHANGE 160
#SCROLL 1.13
1
#BPMCHANGE 205.714
#SCROLL 0.88
1
#BPMCHANGE 160
#SCROLL 1.13
1
#BPMCHANGE 205.714
#SCROLL 0.88
2
#BPMCHANGE 160
#SCROLL 1.13
0
#BPMCHANGE 205.714
#SCROLL 0.88
0, //23
#BPMCHANGE 160
#SCROLL 1.13
1
#BPMCHANGE 205.714
#SCROLL 0.88
0
#BPMCHANGE 160
#SCROLL 1.13
0
#BPMCHANGE 205.714
#SCROLL 0.88
0
#BPMCHANGE 160
#SCROLL 1.13
2
#BPMCHANGE 205.714
#SCROLL 0.88
2
#BPMCHANGE 160
#SCROLL 1.13
0
#BPMCHANGE 205.714
#SCROLL 0.88
2, //24
#BPMCHANGE 160
#SCROLL 1.13
1
#BPMCHANGE 205.714
#SCROLL 0.88
2
#BPMCHANGE 160
#SCROLL 1.13
0
#BPMCHANGE 205.714
#SCROLL 0.88
2
#BPMCHANGE 160
#SCROLL 1.13
1
#BPMCHANGE 205.714
#SCROLL 0.88
2
#BPMCHANGE 160
#SCROLL 1.13
0
#BPMCHANGE 205.714
#SCROLL 0.88
2, //25
#BPMCHANGE 180
#SCROLL 1
7,
#MEASURE 8/4
00000000000000008000002020020020, //27
#MEASURE 4/4
#GOGOSTART
3000001020020020,
3000001020020020,
3001001000200010,
01201120,
1011102000101020,
#MEASURE 9/8
0110
#BPMCHANGE 225
#SCROLL 0.8
22220,
#MEASURE 4/4
#BPMCHANGE 180
#SCROLL 1
1001001000200010,
0011101020020020, //35
#GOGOEND
3003004000300300,
40001010
#GOGOSTART
40020000,
3001001000200010,
01201120,
3003003003002020,
3003003003002020,
100000400040004000400400,
600000000000000000000000000000000000000008000000,
#GOGOEND
1,
2, //45
1000222020200010,
0000222020200010,
0000222020200010,
02212040,
1011101010200010,
2022202020202000,
1011101010200010,
01120110, //53
2020222020020000,
2020222020002220,
2002220022200000,
2220222020020020,
#MEASURE 6/4
000040000000002020020020, //58
#MEASURE 4/4
#GOGOSTART
3000001020020020,
3000001020020020,
3001001000200010,
01201120,
100000100100100000100000100000000000100010000000,
#MEASURE 15/16
200000002000200020000000
#BPMCHANGE 157.5
#SCROLL 1.14
200000200200200200000,
#MEASURE 4/4
#BPMCHANGE 180
#SCROLL 1
1001001000200010,
0011101020020020, //66
#GOGOEND
3003004000300300,
40001010
#GOGOSTART
40020000,
3002001000200010,
01201120,
3003003003002020,
3003003003002020,
3004004004002020,
300000000200000000200000300000004000000040000000,
600000000000000000000000000000000000000000000008,
07000080, //76
#GOGOEND
1010222020200010,
0010222020200010,
0010222020200010,
02212040,
#GOGOSTART
1011101010200010,
2022202020202000,
1011101010002000,
300000004000000300300300,
600000000000000000000000000000000008000000
#GOGOEND
300000,
0,
0, //87
#END

COURSE:Normal
LEVEL:6
BALLOON:16,5
SCOREINIT:3600
SCOREDIFF:0
#START
30202001,
00202001,
00202001,
0120,
10101100,
20202220,
10111000,
444, //8
30001101,
0122,
10101101,
0120,
00101101,
00101022,
00220022,
000200404040, //16
#BPMCHANGE 160
#SCROLL 1.13
0
#BPMCHANGE 205.714
#SCROLL 0.88
0
#BPMCHANGE 160
#SCROLL 1.13
0
#BPMCHANGE 205.714
#SCROLL 0.88
0
#BPMCHANGE 160
#SCROLL 1.13
0
#BPMCHANGE 205.714
#SCROLL 0.88
0
#BPMCHANGE 160
#SCROLL 1.13
0
#BPMCHANGE 205.714
#SCROLL 0.88
0, //17
#BPMCHANGE 160
#SCROLL 1.13
3
#BPMCHANGE 205.714
#SCROLL 0.88
0
#BPMCHANGE 160
#SCROLL 1.13
0
#BPMCHANGE 205.714
#SCROLL 0.88
0
#BPMCHANGE 160
#SCROLL 1.13
2
#BPMCHANGE 205.714
#SCROLL 0.88
0
#BPMCHANGE 160
#SCROLL 1.13
0
#BPMCHANGE 205.714
#SCROLL 0.88
0, //18
#BPMCHANGE 160
#SCROLL 1.13
1
#BPMCHANGE 205.714
#SCROLL 0.88
0
#BPMCHANGE 160
#SCROLL 1.13
1
#BPMCHANGE 205.714
#SCROLL 0.88
0
#BPMCHANGE 160
#SCROLL 1.13
2
#BPMCHANGE 205.714
#SCROLL 0.88
0
#BPMCHANGE 160
#SCROLL 1.13
0
#BPMCHANGE 205.714
#SCROLL 0.88
0, //19
#BPMCHANGE 160
#SCROLL 1.13
1
#BPMCHANGE 205.714
#SCROLL 0.88
0
#BPMCHANGE 180
#SCROLL 1
00
#BPMCHANGE 160
#SCROLL 1.13
2
#BPMCHANGE 205.714
#SCROLL 0.88
0
#BPMCHANGE 160
#SCROLL 1.13
0
#BPMCHANGE 205.714
#SCROLL 0.88
0, //20
#BPMCHANGE 160
#SCROLL 1.13
1
#BPMCHANGE 205.714
#SCROLL 0.88
0
#BPMCHANGE 160
#SCROLL 1.13
1
#BPMCHANGE 205.714
#SCROLL 0.88
0
#BPMCHANGE 160
#SCROLL 1.13
2
#BPMCHANGE 205.714
#SCROLL 0.88
0
#BPMCHANGE 160
#SCROLL 1.13
0
#BPMCHANGE 205.714
#SCROLL 0.88
0, //21
#BPMCHANGE 160
#SCROLL 1.13
1
#BPMCHANGE 205.714
#SCROLL 0.88
0
#BPMCHANGE 160
#SCROLL 1.13
0
#BPMCHANGE 205.714
#SCROLL 0.88
0
#BPMCHANGE 160
#SCROLL 1.13
2
#BPMCHANGE 205.714
#SCROLL 0.88
0
#BPMCHANGE 160
#SCROLL 1.13
0
#BPMCHANGE 205.714
#SCROLL 0.88
0, //22
#BPMCHANGE 160
#SCROLL 1.13
1
#BPMCHANGE 205.714
#SCROLL 0.88
0
#BPMCHANGE 160
#SCROLL 1.13
1
#BPMCHANGE 205.714
#SCROLL 0.88
0
#BPMCHANGE 160
#SCROLL 1.13
2
#BPMCHANGE 205.714
#SCROLL 0.88
0
#BPMCHANGE 160
#SCROLL 1.13
0
#BPMCHANGE 205.714
#SCROLL 0.88
0, //23
#BPMCHANGE 160
#SCROLL 1.13
1
#BPMCHANGE 205.714
#SCROLL 0.88
0
#BPMCHANGE 160
#SCROLL 1.13
0
#BPMCHANGE 205.714
#SCROLL 0.88
0
#BPMCHANGE 160
#SCROLL 1.13
2
#BPMCHANGE 205.714
#SCROLL 0.88
0
#BPMCHANGE 160
#SCROLL 1.13
0
#BPMCHANGE 205.714
#SCROLL 0.88
0, //24
#BPMCHANGE 160
#SCROLL 1.13
3
#BPMCHANGE 205.714
#SCROLL 0.88
0
#BPMCHANGE 160
#SCROLL 1.13
0
#BPMCHANGE 205.714
#SCROLL 0.88
0
#BPMCHANGE 160
#SCROLL 1.13
3
#BPMCHANGE 205.714
#SCROLL 0.88
0
#BPMCHANGE 160
#SCROLL 1.13
0
#BPMCHANGE 205.714
#SCROLL 0.88
0, //25
#BPMCHANGE 180
#SCROLL 1
7,
#MEASURE 8/4
08, //27
#MEASURE 4/4
#GOGOSTART
3000000010010010,
3000000010010010,
30010101,
0022,
10110011,
#MEASURE 9/8
0010
#BPMCHANGE 225
#SCROLL 0.8
20000,
#MEASURE 4/4
#BPMCHANGE 180
#SCROLL 1
10010202,
0000000020020000, //35
#GOGOEND
3003003000300300,
3
#GOGOSTART
4,
30010101,
0022,
3003003003004000,
3003003003004000,
300404040400,
600000000000000000000000000000000000000008000000,
#GOGOEND
1,
2, //45
30202001,
00202001,
00202001,
0120,
10101100,
20202220,
10111001,
00110000, //53
2000200020020000,
20222020,
2000020000200000,
2000200020020020,
#MEASURE 6/4
040000, //58
#MEASURE 4/4
#GOGOSTART
3000000010010010,
3000000010010010,
30010101,
00002220,
10111000,
#MEASURE 15/16
200000000000200020000000
#BPMCHANGE 157.5
#SCROLL 1.14
200000000000000000000,
#MEASURE 4/4
#BPMCHANGE 180
#SCROLL 1
10010202,
0000000020020000, //66
#GOGOEND
3003003000300300,
3
#GOGOSTART
4,
30010101,
00002220,
3003003003004000,
3003003003004000,
3004004004004000,
300333,
600000000000000000000000000000000000000000000008,
07000080, //76
#GOGOEND
30202201,
00202201,
00202201,
0122,
#GOGOSTART
10101100,
20202220,
10111000,
300000003000000300300300,
600000000000000000000000000000000008000000
#GOGOEND
300000,
0,
0, //87
#END

COURSE:Easy
LEVEL:4
BALLOON:14,14,3
SCOREINIT:5040
SCOREDIFF:0
#START
30000001,
00000001,
00000001,
02,
1110,
2220,
1110,
4, //8
30001001,
0011,
10001001,
02,
00101001,
00101002,
00020002,
04, //16
#BPMCHANGE 160
#SCROLL 1.13
0
#BPMCHANGE 205.714
#SCROLL 0.88
0
#BPMCHANGE 160
#SCROLL 1.13
0
#BPMCHANGE 205.714
#SCROLL 0.88
0
#BPMCHANGE 160
#SCROLL 1.13
0
#BPMCHANGE 205.714
#SCROLL 0.88
0
#BPMCHANGE 160
#SCROLL 1.13
0
#BPMCHANGE 205.714
#SCROLL 0.88
0, //17
#BPMCHANGE 160
#SCROLL 1.13
3
#BPMCHANGE 205.714
#SCROLL 0.88
0
#BPMCHANGE 160
#SCROLL 1.13
0
#BPMCHANGE 205.714
#SCROLL 0.88
0
#BPMCHANGE 160
#SCROLL 1.13
2
#BPMCHANGE 205.714
#SCROLL 0.88
0
#BPMCHANGE 160
#SCROLL 1.13
0
#BPMCHANGE 205.714
#SCROLL 0.88
0, //18
#BPMCHANGE 160
#SCROLL 1.13
1
#BPMCHANGE 205.714
#SCROLL 0.88
0
#BPMCHANGE 160
#SCROLL 1.13
1
#BPMCHANGE 205.714
#SCROLL 0.88
0
#BPMCHANGE 160
#SCROLL 1.13
1
#BPMCHANGE 205.714
#SCROLL 0.88
0
#BPMCHANGE 160
#SCROLL 1.13
0
#BPMCHANGE 205.714
#SCROLL 0.88
0, //19
#BPMCHANGE 160
#SCROLL 1.13
1
#BPMCHANGE 205.714
#SCROLL 0.88
0
#BPMCHANGE 180
#SCROLL 1
00
#BPMCHANGE 160
#SCROLL 1.13
2
#BPMCHANGE 205.714
#SCROLL 0.88
0
#BPMCHANGE 160
#SCROLL 1.13
0
#BPMCHANGE 205.714
#SCROLL 0.88
0, //20
#BPMCHANGE 160
#SCROLL 1.13
1
#BPMCHANGE 205.714
#SCROLL 0.88
0
#BPMCHANGE 160
#SCROLL 1.13
1
#BPMCHANGE 205.714
#SCROLL 0.88
0
#BPMCHANGE 160
#SCROLL 1.13
1
#BPMCHANGE 205.714
#SCROLL 0.88
0
#BPMCHANGE 160
#SCROLL 1.13
0
#BPMCHANGE 205.714
#SCROLL 0.88
0, //21
#BPMCHANGE 160
#SCROLL 1.13
1
#BPMCHANGE 205.714
#SCROLL 0.88
0
#BPMCHANGE 160
#SCROLL 1.13
0
#BPMCHANGE 205.714
#SCROLL 0.88
0
#BPMCHANGE 160
#SCROLL 1.13
2
#BPMCHANGE 205.714
#SCROLL 0.88
0
#BPMCHANGE 160
#SCROLL 1.13
0
#BPMCHANGE 205.714
#SCROLL 0.88
0, //22
#BPMCHANGE 160
#SCROLL 1.13
1
#BPMCHANGE 205.714
#SCROLL 0.88
0
#BPMCHANGE 160
#SCROLL 1.13
1
#BPMCHANGE 205.714
#SCROLL 0.88
0
#BPMCHANGE 160
#SCROLL 1.13
1
#BPMCHANGE 205.714
#SCROLL 0.88
0
#BPMCHANGE 160
#SCROLL 1.13
0
#BPMCHANGE 205.714
#SCROLL 0.88
0, //23
#BPMCHANGE 160
#SCROLL 1.13
1
#BPMCHANGE 205.714
#SCROLL 0.88
0
#BPMCHANGE 160
#SCROLL 1.13
0
#BPMCHANGE 205.714
#SCROLL 0.88
0
#BPMCHANGE 160
#SCROLL 1.13
2
#BPMCHANGE 205.714
#SCROLL 0.88
0
#BPMCHANGE 160
#SCROLL 1.13
0
#BPMCHANGE 205.714
#SCROLL 0.88
0, //24
#BPMCHANGE 160
#SCROLL 1.13
3
#BPMCHANGE 205.714
#SCROLL 0.88
0
#BPMCHANGE 160
#SCROLL 1.13
0
#BPMCHANGE 205.714
#SCROLL 0.88
0
#BPMCHANGE 160
#SCROLL 1.13
3
#BPMCHANGE 205.714
#SCROLL 0.88
0
#BPMCHANGE 160
#SCROLL 1.13
0
#BPMCHANGE 205.714
#SCROLL 0.88
0, //25
#BPMCHANGE 180
#SCROLL 1
7,
#MEASURE 8/4
08, //27
#MEASURE 4/4
#GOGOSTART
3000000010010000,
3000000010010000,
30000202,
02,
1101,
#MEASURE 9/8
0010
#BPMCHANGE 225
#SCROLL 0.8
20000,
#MEASURE 4/4
#BPMCHANGE 180
#SCROLL 1
10000101,
02, //35
#GOGOEND
3003003000300300,
3
#GOGOSTART
4,
30000202,
02,
3003003003003000,
3003003003003000,
000404040400,
600000000000000000000000000008000000000000000000,
#GOGOEND
1,
0, //45
30000001,
00000001,
00000001,
02,
1110,
2220,
10101003,
00030000, //53
2220,
2220,
2000020000200000,
2000000020020020,
#MEASURE 6/4
040000, //58
#MEASURE 4/4
#GOGOSTART
3000000010010000,
3000000010010000,
30000202,
02,
1110,
#MEASURE 15/16
200000000000200000000000
#BPMCHANGE 157.5
#SCROLL 1.14
200000000000000000000,
#MEASURE 4/4
#BPMCHANGE 180
#SCROLL 1
10000101,
02, //66
#GOGOEND
3003003000300300,
3
#GOGOSTART
4,
30000202,
02,
3003003003003000,
3003003003003000,
4004004004004000,
7,
0,
8, //76
#GOGOEND
30101001,
00101001,
00101001,
0120,
#GOGOSTART
1110,
2220,
1110,
300000003000000300000000,
7000800
#GOGOEND
3,
0,
0, //87
#END
