//TJADB Project
TITLE:Bansanka
TITLEJA:晩餐歌
SUBTITLE:--tuki.
SUBTITLEJA:tuki.
BPM:103
WAVE:Bansanka.ogg
OFFSET:-1.742
DEMOSTART:66.381 //shinuchi:
7770/4510/2980/1730

COURSE:Oni
LEVEL:7
BALLOON:
SCOREINIT:540,1770
SCOREDIFF:140
#START
1002001020220020,
1002001020002000,
1000201020220020,
1002001020002010,
1002001020220020,
1002001020002020,
12212211,
01404000, //8
1002101112102022,
1002101112102000,
1002101112102022,
1002101112102000,
1021201110002021,
1101101210002000,
1021201110002021,
1101101210000000, //16
1000100212102010,
1011011012102000,
1021201110102021,
1021201112102200,
1010212120201002,
1010212120201002,
1010212120201020,
1020102010202210,
1010212120201022,
1010212120303000,
32230223,
0010101110200000, //28
#GOGOSTART
1022121012112010,
1022102012102000,
1001201012112010,
1022121020002210,
1022121012112010,
1022102012102010,
1021201010212010,
01404000, //36
#GOGOEND
1022001010220010,
1022001010002010,
1000200210202002,
1020201010201111,
1020201111102011,
1020201111102010,
2001201120012010,
600000000000000000000008000000000000000000000000, //44
1002002010020020,
1002002010002000,
1000200010220020,
1020202010002220,
1021022010210220,
1021022010212020,
1021202010212020,
000000600000000000000008000000000000300000000000, //52
#GOGOSTART
1022121012112010,
1022102012102000,
1001201012112010,
1022121020002210,
2222121012112010,
1022102012102010,
1021201010212010,
01404000, //60
1012101112102011,
1012101112102022,
1012101112102011,
1012101112102020,
#GOGOEND
1002001000202020,
1002001000202010,
0, //67
#END

COURSE:Hard
LEVEL:4
BALLOON:25
SCOREINIT:660,3120
SCOREDIFF:183
#START
1012,
1001001010002000,
1212,
1001001010000000,
1012,
1001001010002000,
10101110,
0440, //8
1002001000101011,
1002001000102000,
1002001000101011,
1002001000102000,
10111000,
10112000,
10111000,
10112000, //16
10201110,
10201110,
10211020,
10211020,
10212220,
10212220,
10212220,
12121000,
10212220,
10212220,
7,
08, //28
#GOGOSTART
1011001010002000,
1011001010002000,
10201120,
1011102020000000,
1011001010002000,
1011001010002000,
11221122,
01404000, //36
#GOGOEND
1212,
10221000,
1222,
10221000,
10121010,
10111020,
30303033,
600000000000000000000008000000000000000000000000, //44
1012,
10221000,
1212,
10221000,
10201220,
10221020,
11102222,
000000600000000000000008000000000000000000000000, //52
#GOGOSTART
1011001010110010,
1011001010002000,
10201120,
1011102020002000,
1011001010110010,
1011001010002000,
11221122,
01404000, //60
1001001000101011,
1001001000102000,
1001001000101011,
10101111,
#GOGOEND
2002002000002000,
2002002000002000,
0, //67
#END

COURSE:Normal
LEVEL:4
BALLOON:7,17
SCOREINIT:780,4820
SCOREDIFF:248
#START
11,
1001000010000000,
12,
1001000010000000,
11,
1001000010000000,
12,
0330, //8
10010010,
10010020,
10010010,
10010020,
1110,
12,
1110,
12, //16
1110,
2220,
1110,
12,
10001110,
10001110,
10001110,
70000800,
10001110,
10001110,
7,
08, //28
#GOGOSTART
1001001010001000,
1001001010001000,
1212,
1001002020000000,
1001001010001000,
1001001010001000,
10101110,
0330, //36
#GOGOEND
11,
1220,
1012,
1220,
1012,
10222000,
3333,
600000000000000000000008000000000000000000000000, //44
22,
2220,
22,
2220,
12,
1220,
10202220,
000000600000000000000008000000000000000000000000, //52
#GOGOSTART
1001001010002000,
1001001010002000,
1212,
1001002020000000,
1001001010002000,
1001001010002000,
10101110,
0330, //60
1001001000001000,
1001001000001000,
1001001000001000,
10101110,
#GOGOEND
20020020,
20020020,
0, //67
#END

COURSE:Easy
LEVEL:2
BALLOON:6,14
SCOREINIT:780,8600
SCOREDIFF:378
#START
1,
11,
1,
11,
1,
11,
11,
0330, //8
1,
10010000,
1,
10010000,
1,
1,
1,
2, //16
11,
11,
1,
2,
11,
12,
11,
70000800,
11,
12,
7,
08, //28
#GOGOSTART
11,
1110,
11,
1110,
11,
1110,
1011,
0330, //36
#GOGOEND
11,
2,
11,
2,
11,
12,
3333,
600000000000000000000008000000000000000000000000, //44
2,
22,
2,
22,
12,
22,
22,
000000600000000000000008000000000000000000000000, //52
#GOGOSTART
11,
1110,
11,
1110,
21,
1110,
11,
0330, //60
1,
10010000,
1,
1110,
#GOGOEND
20020000,
20020020,
0, //67
#END
