//TJADB Project
TITLE:Shinako World
TITLEJA:しなこワールド
SUBTITLE:--Shinako
SUBTITLEJA:しなこ
BPM:128
WAVE:Shinako World.ogg
OFFSET:-8.220
DEMOSTART:45.691 //shinuchi:
18760/9150/5030/2400

COURSE:Oni
LEVEL:5
BALLOON:
SCOREINIT:650,2570
SCOREDIFF:183
#START
20220000,
20220000,
20220000,
20220000, //4
1000201010002011,
11221020,
10211121,
1110202010002000,
1000201010002011,
11221011,
2010201011102020,
0010102011102020, //12
1000202010111020,
03333020,
1000202010111020,
04444020,
1000202010111020,
1112,
1010202010111020,
33333040, //20
#GOGOSTART
3010101120102020,
1011101020102000,
1010101120102020,
1011101020102000,
1010101120102020,
3000300011101050,
000000000000000000000008000000100000100000600000,
000000000000000008000000200000000000200000000000, //28
3000201110102020,
0000200011102000,
3000201110102020,
0000200000112000,
3000201110102020,
0000200011102000,
1000201110102020,
0000200022202000,
#GOGOEND
#MEASURE 2/4
0, //37
#MEASURE 4/4
1010110101011010,
1010110100222000,
1010110101011010,
1010110100222000,
1010110101011010,
1010110100222000,
1010110101011010,
1010110100204000,
#MEASURE 2/4
0, //46
#MEASURE 4/4
#BPMCHANGE 110
2220,
2024,
#BPMCHANGE 128
#GOGOSTART
1010101120102020,
1011101020102000,
1010101120102020,
3000300011101050,
000000000000000000000008000000100000100000600000,
000000000000000008000000200000000000200000000000, //54
3000201110102020,
0000200011102000,
3000201110102020,
0000200000112000,
3000201110102020,
0000200011102000,
3000201110102020,
00002000
#GOGOEND
22202000,
0,
0, //64
#END

COURSE:Hard
LEVEL:2
BALLOON:22,22,22,22
SCOREINIT:950,5670
SCOREDIFF:300
#START
2,
2,
2,
2, //4
10011000,
1,
10011000,
1120,
10011000,
1110,
2011,
0022, //12
10101111,
0002,
10101111,
0002,
10101111,
0002,
1122,
11103040, //20
#GOGOSTART
11101120,
1110,
11101120,
3340,
11101120,
30301015,
000000000000000000000008000000100000100000600000,
000000000000000000000008000000000000400000000000, //28
10010111,
0022,
10010111,
00000220,
10010111,
0022,
10010111,
00002220,
#GOGOEND
#MEASURE 2/4
0, //37
#MEASURE 4/4
7,
0082,
7,
0082,
7,
0082,
7,
0082,
#MEASURE 2/4
0, //46
#MEASURE 4/4
#BPMCHANGE 110
22,
22,
#BPMCHANGE 128
#GOGOSTART
11101120,
3340,
11101120,
30301015,
000000000000000000000008000000100000100000600000,
000000000000000000000000000008000000400000000000, //54
10010111,
0022,
10010111,
00000220,
10010111,
0022,
10010111,
0000
#GOGOEND
2220,
0,
0, //64
#END

COURSE:Normal
LEVEL:2
BALLOON:16,16,16,16
SCOREINIT:1280,10200
SCOREDIFF:778
#START
2,
0,
2,
0, //4
11,
1,
11,
1,
11,
1,
2011,
0, //12
1011,
0,
1011,
0,
1011,
0,
11,
3330, //20
#GOGOSTART
1110,
11,
1110,
34,
1110,
1015,
000000000000000000000008000000000000000000600000,
000000000000000000000000000008000000000000000000, //28
10010101,
01,
10010101,
02,
10010101,
01,
10010101,
0022,
#GOGOEND
#MEASURE 2/4
0, //37
#MEASURE 4/4
7,
08,
7,
08,
7,
08,
7,
08,
#MEASURE 2/4
0, //46
#MEASURE 4/4
#BPMCHANGE 110
2,
2,
#BPMCHANGE 128
#GOGOSTART
1110,
34,
1110,
10001005,
000000000000000000000008000000000000000000600000,
000000000000000000000000000008000000000000000000, //54
10010101,
01,
10010101,
02,
10010101,
01,
10010101,
00
#GOGOEND
22,
0,
0, //64
#END

COURSE:Easy
LEVEL:1
BALLOON:12,12,12,12
SCOREINIT:1740,20250
SCOREDIFF:2035
#START
1,
0,
1,
0, //4
1,
1,
1,
0,
1,
1,
2,
0, //12
11,
0,
11,
0,
11,
0,
11,
1, //20
#GOGOSTART
11,
1,
11,
3,
11,
10000005,
000000000000000000000008000000000000000000600000,
000000000000000000000000000008000000000000000000, //28
1,
01,
1,
01,
1,
01,
1,
02,
#GOGOEND
#MEASURE 2/4
0, //37
#MEASURE 4/4
7,
08,
7,
08,
7,
08,
7,
08,
#MEASURE 2/4
0, //46
#MEASURE 4/4
#BPMCHANGE 110
1,
0,
#BPMCHANGE 128
#GOGOSTART
11,
3,
11,
10000005,
000000000000000000000008000000000000000000600000,
000000000000000000000000000008000000000000000000, //54
1,
01,
1,
01,
1,
01,
1,
0
#GOGOEND
2,
0,
0, //64
#END
