//TJADB Project
TITLE:Otonoke
TITLEJA:オトノケ
SUBTITLE:--DanDaDan
SUBTITLEJA:TVアニメ「ダンダダン」より
BPM:173
WAVE:Otonoke.ogg
OFFSET:-1.293
DEMOSTART:1.293 //shinuchi:
10270/5820/2700/1800

COURSE:Oni
LEVEL:8
BALLOON:
SCOREINIT:580,1850
SCOREDIFF:155
#START
1001101001101001,
1010011010011000,
1001101001101001,
1010011010011000,
1001101001101001,
1010011010011000,
3001103001103001,
#BPMCHANGE 171
1000001220221020, //8
#BPMCHANGE 170
1002101012101002,
1022102210021020,
1202101202101202,
1222111010101040,
0110121011021012,
1022102210021040,
0011121010021022,
1011121010021000, //16
1012101012101012,
1011221010021040,
0012101210021022,
1011101010021010,
1000101010101002,
1012101010021040,
0011221010021011,
1200112210021000, //24
1002202002202002,
2020022020022000,
1020022020022020,
0220222020022000,
1000222020022000,
2220202020022000,
2220202220022000,
0000002220202020, //32
#GOGOSTART
1002101112102010,
1002101112102010,
3002103002103002,
1000102220102020,
1001200210112010,
1001201110102010,
1002100110112010,
1000102220202020, //40
1002101112102010,
1002101112102010,
3002103002103002,
1000102220102020,
1001200210112010,
1001201110102010,
1002100110104000,
1010202010021010, //48
1001201010012010,
1001201020220220,
1001201010112010,
1001201120220220,
1001201010012010,
1001201010212010,
1002000000221010,
1002000000002000, //56
#GOGOEND
#BPMCHANGE 172
1002101002101002,
1010021010021000,
1002101002101002,
1010021010021000,
1102101102101102,
1011021011021000,
1102101102101102,
1,
0, //65
#END

COURSE:Hard
LEVEL:6
BALLOON:
SCOREINIT:660,2740
SCOREDIFF:190
#START
10010010,
01001000,
10010010,
01001000,
10010010,
01001000,
30030030,
#BPMCHANGE 171
3, //8
#BPMCHANGE 170
1000101020001001,
1000101020011000,
1001001001001001,
10101122,
1000101020001001,
1000101020011000,
1000101020001001,
1000101020011000, //16
1001001001001001,
1000101020011000,
1000101020011010,
1000101020011000,
1000101020101001,
1000101020011000,
1000101020011010,
1000101020011000, //24
20220220,
22022020,
02022022,
02202020,
10222020,
10222020,
10222020,
00002022, //32
#GOGOSTART
1001101110101010,
1001101110101010,
1001101001101001,
1000001110202010,
1001100010002000,
1001101110202010,
1001100010002000,
1000002220202020, //40
1001101110101010,
1001101110101010,
1001101001101001,
1000001110202010,
1001100010002000,
1001101110202010,
1001100010004000,
0020001010010010, //48
1001001010010010,
1001001010002000,
1001001010010010,
1001001010002000,
1001001010010010,
1001001010010010,
1002000000100010,
1002000000002000, //56
#GOGOEND
#BPMCHANGE 172
1001101001101001,
1010011010011000,
1001101001101001,
1010011010011000,
1001101001101001,
1010011010011000,
1001101001101001,
1,
0, //65
#END

COURSE:Normal
LEVEL:4
BALLOON:7,5,7,7
SCOREINIT:1020,6190
SCOREDIFF:355
#START
5,
000000000000000000000000000000000008000000000000,
5,
000000000000000000000000000000000008000000000000,
5,
000000000000000000000000000000000008000000000000,
600000000000000000000000000000000000000000000008,
#BPMCHANGE 171
0, //8
#BPMCHANGE 170
11,
11,
7,
8011,
1011,
1011,
1011,
1011, //16
70000800,
1211,
1211,
1211,
10111010,
1211,
10111010,
1211, //24
22,
22,
12,
22,
12,
1022,
1022,
0011, //32
#GOGOSTART
10111010,
10111010,
7,
80001011,
1102,
00001011,
1102,
0011, //40
10111010,
10111010,
7,
80001011,
1102,
00001011,
1104,
0, //48
1211,
10111000,
1211,
10111000,
1211,
10111010,
1002,
1002, //56
#GOGOEND
#BPMCHANGE 172
10010010,
01001000,
10010010,
01001000,
10010010,
01001000,
30030030,
3,
0, //65
#END

COURSE:Easy
LEVEL:2
BALLOON:6,4,6,6,6
SCOREINIT:1040,10790
SCOREDIFF:618
#START
5,
000000000000000000000000000008000000000000000000,
5,
000000000000000000000000000008000000000000000000,
5,
000000000000000000000000000008000000000000000000,
600000000000000000000000000000000000000000000008,
#BPMCHANGE 171
0, //8
#BPMCHANGE 170
1,
11,
7,
81,
01,
01,
01,
01, //16
70000800,
11,
11,
11,
1011,
01,
1011,
01, //24
2,
2,
2,
2,
22,
22,
22,
0011, //32
#GOGOSTART
1011,
1011,
7,
8011,
1002,
0011,
1002,
0011, //40
1011,
1011,
7,
8011,
1002,
0011,
1004,
0, //48
11,
12,
1110,
12,
11,
1110,
1,
1, //56
#GOGOEND
#BPMCHANGE 172
10010010,
01,
10010010,
01,
10010010,
01,
900000000000000000000000000000000000090000000000,
080000000000000000000000000000000000000000000000,
0, //65
#END
