//TJADB Project
TITLE:Famires Wars
TITLEJA:ファミレスウォーズ
SUBTITLE:--Mirai feat. Keiori Aihara
SUBTITLEJA:
BPM:190
WAVE:Famires Wars.ogg
OFFSET:-1.500
DEMOSTART:32.434 //Shinuchi:
6870/4420/2080/1190

COURSE:Oni
LEVEL:8
BALLOON:5,9,9
SCOREINIT:390,1370
SCOREDIFF:95
#START
#MEASURE 2/4
22111030,
#MEASURE 4/4
0010400022111030,
0010400022111030,
0010400022111030,
0022103000221030,
0010400011112030,
0010400011112030,
0010400011112030,
0011203000111120, //9
1010200110200010,
1010200110200010,
1010200110200010,
1010200120112001,
1010200110202001,
1010200110202001,
1010201210202000,
44040708, //17
1010200210200020,
1010200210200020,
1010200210200020,
1010200210221001,
1010200110202001,
1010200110202001,
1010201210202000,
70000800, //25
#GOGOSTART
1111,
1010001010222000,
1111,
1010001010222000,
1010220110102201,
1010220110102201,
1011220110112200,
500000000000000000000008000000000000000000000000, //33
1111,
1010001010222000,
1111,
1010001010222000,
1010220110102201,
1010220110102201,
1011220110112200,
500000000000000000000000000000000000000008000000,
04040404,
34043034,
04300000, //44
#GOGOEND
1111100011111000,
11111000,
1111000011111010,
1010111110000030,
0010400022111030,
0010400022111030,
0010400022111030,
0022103000221030, //52
0010400011112030,
0010400011112030,
0011203000112060,
000000000000000008000000000000000000000000300000,
0022104022111030,
0022104022111030,
0022104022111030,
0022103000221030, //60
0011204011112030,
0011204011112030,
0011203000112060,
000000000000000008000000000000000000000000000000,
1010200110200010,
1010200110200010,
1010200110200010,
1010200120112001, //68
1010200110202001,
1010200110202001,
1010201210202000,
500000000000000000000000000000000008000000000000,
1010200210200020,
1010200210200020,
1010200210200020,
1010200210221001,
1010200110202001,
1010200110202001,
1010201210202000,
70000800, //80
#GOGOSTART
2222,
2000202020112000,
2222,
2000202020112000,
1010220110102201,
1010220110102201,
1011220120112200,
500000000000000000000008000000000000000000000000, //88
2222,
2000202020112000,
2222,
2000202020112000,
1010220110102201,
1010220110102201,
1011220120112200,
500000000000000000000000000000000000000008000000,
04040404, //97
34043034,
0040300022112200,
43034043,
0030400011221100,
34043034,
0040300022112200,
43034043,
03404000, //105
#GOGOEND
0,
0,
0,
0, //109
#END

COURSE:Hard
LEVEL:5
BALLOON:5,5,5,5
SCOREINIT:480,2560
SCOREDIFF:125
#START
#MEASURE 2/4
0003,
#MEASURE 4/4
00400003,
00400003,
00400006,
000000000000000008000000000000000000000000300000,
00400003,
00400003,
00400006,
000000000000000008000000000000000000000000000000, //9
10201201,
01201120,
10201201,
01201120,
10201201,
01201120,
10201120,
70000800, //17
10202201,
02201120,
10202201,
02201120,
10201120,
10211020,
10201120,
70000800, //25
#GOGOSTART
1111,
1010001010222000,
1111,
1010001010222000,
10201120,
10201120,
1110200011102000,
500000000000000000000008000000000000000000000000, //33
1111,
1010001010222000,
1111,
1010001010222000,
10201120,
10201120,
1110200011102000,
500000000000000000000000000000000000000008000000,
0,
33044033,
04400000, //44
#GOGOEND
11,
1110,
11,
10101003,
00400003,
00400003,
00400006,
000000000000000008000000000000000000000000300000, //52
00400003,
00400003,
00030006,
000000000000000008000000000000000000000000300000,
00040003,
00040003,
00040006,
000000000000000008000000000000000000000000300000, //60
00040003,
00040003,
00030006,
000000000000000008000000000000000000000000000000,
10201201,
01201120,
10201201,
01201120, //68
10201201,
01201120,
10201120,
70000800,
10202201,
02201120,
10202201,
02201120,
10201120,
10211020,
10201120,
70000800, //80
#GOGOSTART
2222,
2000202020111000,
2222,
2000202020111000,
10201120,
10201120,
1110200011102000,
500000000000000000000008000000000000000000000000, //88
2222,
2000202020111000,
2222,
2000202020111000,
10201120,
10201120,
1110200011102000,
500000000000000000000000000000000000000008000000,
0, //97
33044033,
04400000,
44033044,
03300000,
33044033,
04400000,
44033044,
03304000, //105
#GOGOEND
0,
0,
0,
0, //109
#END

COURSE:Normal
LEVEL:4
BALLOON:8,6,8,8,8,10
SCOREINIT:770,5030
SCOREDIFF:235
#START
#MEASURE 2/4
0003,
#MEASURE 4/4
00000003,
00000003,
00000006,
000000000000000008000000000000000000000000300000,
00000003,
00000003,
00000006,
000000000000000008000000000000000000000000000000, //9
1110,
1110,
12,
1,
1011,
12,
1110,
1, //17
1110,
1110,
12,
1,
1011,
12,
1110,
1, //25
#GOGOSTART
1111,
10111000,
1111,
10111000,
1122,
1122,
1122,
500000000000000000000008000000000000000000000000, //33
1111,
10111000,
1111,
10111000,
1122,
12,
1122,
500000000000000000000000000000000000000008000000,
0,
7,
0800, //44
#GOGOEND
0,
0,
0,
00000003,
00000003,
00000003,
00000006,
000000000000000008000000000000000000000000300000, //52
00000003,
00000006,
000000000000000008000000000000000000000000300000,
00000003,
00000003,
00000003,
00000006,
000000000000000008000000000000000000000000300000, //60
00000003,
00000009,
000000000000000000000000000000000900000000000008,
0,
1110,
2220,
12,
1, //68
1011,
12,
1110,
1,
1110,
2220,
12,
1,
1011,
12,
1110,
1, //80
#GOGOSTART
2222,
20222000,
2222,
20222000,
1122,
1122,
1122,
500000000000000000000008000000000000000000000000, //88
2222,
20222000,
2222,
20222000,
1122,
12,
1122,
500000000000000000000000000000000000000008000000,
0, //97
7,
0800,
7,
0800,
7,
0800,
9,
09008000, //105
#GOGOEND
0,
0,
0,
0, //109
#END

COURSE:Easy
LEVEL:2
BALLOON:6,6,6,6,6,8
SCOREINIT:710,8200
SCOREDIFF:263
#START
#MEASURE 2/4
0003,
#MEASURE 4/4
00000003,
00000003,
00000006,
000000000000000000000000000008000000000000300000,
00000003,
00000003,
00000006,
000000000000000008000000000000000000000000000000, //9
1,
1,
11,
1,
11,
1,
11,
1, //17
1,
1,
11,
1,
11,
1,
11,
1, //25
#GOGOSTART
1111,
1,
1111,
1,
1,
1,
11,
500000000000000000000008000000000000000000000000, //33
1111,
1,
1111,
1,
1,
1,
11,
500000000000000000000000000000000000000008000000,
0,
7,
0800, //44
#GOGOEND
0,
0,
0,
00000003,
00000003,
00000003,
00000006,
000000000000000008000000000000000000000000300000, //52
00000003,
00000006,
000000000000000008000000000000000000000000300000,
00000003,
00000003,
00000003,
00000006,
000000000000000008000000000000000000000000300000, //60
00000003,
00000009,
000000000000000000000000000000000900000000000008,
0,
1,
1,
22,
2, //68
11,
1,
11,
1,
1,
1,
22,
2,
11,
1,
11,
1, //80
#GOGOSTART
1111,
11,
1111,
11,
1,
1,
22,
500000000000000000000008000000000000000000000000, //88
1111,
11,
1111,
11,
1,
1,
22,
500000000000000000000000000000000000000008000000,
0, //97
7,
0800,
7,
0800,
7,
0800,
9,
09008000, //105
#GOGOEND
0,
0,
0,
0, //109
#END
