//TJADB Project
TITLE:Ka.Ma.Se
TITLEJA:Ka.Ma.Se
SUBTITLE:--RIZARDI
SUBTITLEJA:RIZARDI
BPM:180
WAVE:Ka Ma Se.ogg
OFFSET:-2.301
DEMOSTART:35.636 //shinuchi:
5270/3600/2280/1770/-

COURSE:Edit
LEVEL:10
BALLOON:13,2,2,13
SCOREINIT:1440
SCOREDIFF:0
#START
0,
0403,
0430,
100111200111,
200101200111,
201020102210,
7008,
100102100102,
10107840, //9
121121102102,
121121201200,
121121102102,
102010102010200000700800,
121121122102,
101121201222,
121121121212,
100010202020100010222200, //17
100000100011100011100022,
200022200011100022200000,
100000100011100011100022,
200022200011100022202020,
100000100011100011100022,
200022200011100022202020,
100011100020100011102020,
500000000000000000000000000008000000400000000000, //25
0121,
000000100010200000221100,
0121,
0124,
100221221122,
101020111010200010200000,
100221221121,
121221121400, //33
#GOGOSTART
111000111000102010201020,
111000200010200000221100,
111000111000102010201020,
111000111000202020101010,
200300121210,
222020102020102010201010,
222020101010222020101010,
4013,
#GOGOEND
200101200102,
111222300400,//43
#GOGOSTART
100011100020100011100020,
100011100020100011100020,
100011100020100011100020,
100011100020100011102020,
100011200020100011200020,
100011200020100011200020,
100011200020100011200020,
111222121212, //51
112101201202,
111202111222,
101110200010202220100020,
101110202020300000300000,
100122102122,
111020100010221020100020,
101012112212,
7008, //59
#GOGOEND
222020202020200020200000,
222020222020202020200000,
222020200000222020200000,
600000000000000000000000000008000000400000000000,
0121,
000000100010200000221100,
0121,
0124,
100221221122,
101020111010200010200000,
100221221221,
102010202010220022002200, //71
#GOGOSTART
111000111000102010201020,
101110201010200000221100,
111000111000102010201020,
111000111000202020100010,
200020100022201020100022,
202020100022201020100022,
202020101022201020102010,
500000000000000008000000100000000000300000000000,
#GOGOEND
200101200102,
111010222020111010400000,
0,
0, //83
#END

COURSE:Oni
LEVEL:8
BALLOON:11,2,2,11,11
SCOREINIT:580,1890
SCOREDIFF:148
#START
0,
0403,
0400,
100111100111,
100101100111,
112121,
7008,
100101100101,
10107840, //9
101101102102,
101101201200,
101101102102,
100010100010200000700800,
121100121102,
101101201101,
111102222201,
111102222200, //17
100101101102,
202201102201,
100101101102,
202201102222,
100101111102,
222201111222,
101102101122,
500000000000000000000000000008000000400000000000, //25
0121,
000101200300,
0121,
0124,
100201201200,
101102101200,
100201201101,
101201121200, //33
#GOGOSTART
110110121010,
110201200300,
110110121010,
110110202111,
200300121010,
222100121210,
202110202111,
2013,
#GOGOEND
200101200102,
111222100400, //43
#GOGOSTART
101102101102,
101102101102,
101102101102,
101102101122,
101202101202,
101202101202,
101202101200,
7008, //51
111101201200,
111100222200,
111200222100,
111200300300,
100102102102,
111101222102,
101012112211,
7008, //59
#GOGOEND
222222202200,
222222222200,
222200222200,
600000000000000000000000000008000000400000000000,
0121,
000101200300,
0121,
0124,
100201201100,
102102101200,
100201201201,
201221202020, //71
#GOGOSTART
110110121010,
111201200300,
110110121010,
110110222202,
202101202101,
202101202101,
222102212121,
500000000000000008000000100000000000300000000000,
#GOGOEND
200101200102,
111222100400,
0,
0, //83
#END

COURSE:Hard
LEVEL:7
BALLOON:9,2,2,9,9
SCOREINIT:620,2470
SCOREDIFF:158
#START
0,
0403,
0400,
100101100101,
100101100101,
111121,
7008,
100101100100,
10107840, //9
101100101100,
101101100200,
101100101100,
100010100010100000700800,
111100111100,
101100200100,
111100222200,
500000000000000000000000000000000008000000000000, //17
100101101100,
200201102200,
100101101100,
200201102200,
101101101100,
202202202200,
102201102200,
500000000000000000000000000008000000400000000000, //25
0121,
000101200300,
0121,
0124,
100101101100,
101101100200,
100101101101,
101101100200, //33
#GOGOSTART
100100101010,
100101100300,
100100101010,
100100202100,
200300101010,
100100101010,
201102201100,
2013,
#GOGOEND
200100200102,
101202100400, //43
#GOGOSTART
101100101100,
101100101100,
101100101100,
101101101100,
101200101200,
101200101200,
101200101200,
7008, //51
101101101100,
101100202200,
111100222200,
101100300300,
100100101100,
111100400100,
101010101111,
7008, //59
#GOGOEND
200200202200,
200200202200,
202200202200,
600000000000000000000000000008000000400000000000,
0121,
000101200300,
0121,
0124,
100101101100,
101100101100,
100101101101,
100000001000100000000000500000000000000008000000, //71
#GOGOSTART
100100101010,
100101100300,
100100101010,
100100222202,
200102200102,
200102200102,
201102201100,
500000000000000008000000100000000000300000000000,
#GOGOEND
200100200102,
101202100400,
0,
0, //83
#END

COURSE:Normal
LEVEL:6
BALLOON:6,2,2,6,6
SCOREINIT:750,4130
SCOREDIFF:213
#START
0,
0403,
0400,
1111,
1110,
500000000000000000000000000000000008000000000000,
7008,
1111,
10107800, //9
1111,
1112,
1111,
10101078,
34,
1121,
1122,
500000000000000000000000000000000008000000000000, //17
1110,
2210,
1110,
2210,
1111,
2222,
1212,
500000000000000000000000000008000000400000000000, //25
0121,
0123,
0121,
0124,
0111,
1112,
0111,
500000000000000000000000000000000008000000000000, //33
#GOGOSTART
100111,
1013,
100111,
1011,
200111,
100111,
2121,
2003,
#GOGOEND
12,
500000000000000000000008000000000000400000000000, //43
#GOGOSTART
1111,
1111,
1111,
1110,
1212,
1212,
1212,
7008, //51
100000101100,
200000202200,
1122,
1133,
1111,
1140,
500000000000000000000000000000000008000000000000,
7008, //59
#GOGOEND
200200202200,
200200202200,
44,
600000000000000000000000000008000000400000000000,
0121,
0123,
0121,
0124,
0111,
1111,
0111,
500000000000000000000000000000000008000000000000, //71
#GOGOSTART
100111,
1013,
100111,
1122,
2121,
2121,
4343,
600000000000000000000008000000000000300000000000,
#GOGOEND
1121,
1214,
0,
0, //83
#END

COURSE:Easy
LEVEL:4
BALLOON:5,5,5
SCOREINIT:600,5880
SCOREDIFF:198
#START
0,
0403,
0400,
11,
11,
500000000000000000000000000000000008000000000000,
7008,
11,
12, //9
11,
1110,
11,
1110,
34,
1120,
12,
500000000000000000000000000000000008000000000000, //17
11,
21,
11,
21,
1110,
2220,
1111,
500000000000000000000000000008000000000000000000, //25
0101,
0102,
0101,
0104,
0111,
0111,
0111,
500000000000000000000000000000000008000000000000, //33
#GOGOSTART
11,
1012,
11,
1011,
21,
11,
1111,
2,
#GOGOEND
12,
500000000000000000000008000000000000400000000000, //43
#GOGOSTART
1110,
1110,
1110,
1110,
1210,
1210,
1210,
7008, //51
1011,
2022,
12,
13,
1111,
14,
500000000000000000000000000000000008000000000000,
7008, //59
#GOGOEND
2220,
2220,
44,
600000000000000000000000000008000000000000000000,
0101,
0102,
0101,
0104,
0111,
0111,
0111,
500000000000000000000000000000000008000000000000, //71
#GOGOSTART
11,
1012,
11,
1022,
22,
22,
44,
600000000000000000000008000000000000000000000000,
#GOGOEND
12,
1114,
0,
0, //83
#END
