//TJADB Project
TITLE:Nanairo Button -VitaMS Chart-
TITLEJA:七彩ボタン
SUBTITLE:--Tetsuya Uchida feat. Iori Minase/THE iDOLM@STER 2
SUBTITLEJA:VitaMS譜面 「アイドルマスター」より
BPM:128
WAVE:Nanairo Button.ogg
OFFSET:-2.274
DEMOSTART:61.541

COURSE:Oni
LEVEL:7
BALLOON:
SCOREINIT:660,2130
SCOREDIFF:185
#START
#GOGOSTART
10101212,
0020102010001011,
1020100010222010,
0020100010201011,
10101212,
02120210,
1011221100100010,
0010100011102000, //8
#GOGOEND
1022020110102011,
1010201101102000,
1022020110102011,
1010201101102000,
1022202010102010,
0010201101102000,
1020220202202060,
000000000000000000000000000008000000000000000000, //16
1020102210201011,
1020102210201000,
1020102210201011,
1020102210201000,
1020102210201011,
1020102210201000,
34330220,
33430000, //24
1020200010112020,
0020002210112000,
1020200010112020,
0020002210003030,
0010210100202030,
0010120100202030,
0010220100102020,
01130000, //32
#GOGOSTART
1020102210201020,
0020102210201011,
1020102210112010,
0020100010201011,
1020102210201020,
0020102210201000,
1011221100100010,
0010100011102000, //40
#GOGOEND
1020220200102010,
0010200011102000,
11221121,
0010112200202000,
1010210200112020,
01212120,
1010220100200010,
01212100, //48
#BPMCHANGE 127.08
2000202200000020,
#BPMCHANGE 127.9
0020202200000000,
#BPMCHANGE 129.04
2000202200200010,
#BPMCHANGE 128
0010100011102000, //52
#GOGOSTART
1020102210201020,
0020102210201000,
1011221100100010,
0010100011102000,
10010111,
000000500000000000000000000000000008000000000000,
#GOGOEND
1022020110102011,
1010201101102000, //60
1022020110102011,
1010201101102000,
1022202010102030,
0, //64
#END

COURSE:Hard
LEVEL:6
BALLOON:7,7,7
SCOREINIT:700,2770
SCOREDIFF:198
#START
#GOGOSTART
10101212,
02121012,
1020100010222010,
02101210,
10101212,
02120210,
1022011100100070,
000000000000000000000000000000000000080000000000, //8
#GOGOEND
11201121,
01210121,
01201121,
01210220,
1022200010102010,
01210120,
1020220200006000,
000000000000000000000000000000000008000000000000, //16
10101120,
11210120,
10101121,
01210120,
10101121,
10101120,
33330220,
33330000, //24
11100111,
01010120,
22200222,
02020033,
0010110100000030,
0010110100100030,
0010100100006000,
000000000000000008000000000000000000000000000000, //32
#GOGOSTART
12101212,
02121012,
1020100010222010,
02101210,
12101212,
02120210,
1022011100100070,
000000000000000000000000000000000000080000000000, //40
#GOGOEND
1010220100102010,
01210120,
11211121,
01221220,
1010220100222010,
01212020,
1010220100200010,
01212100, //48
#BPMCHANGE 127.08
2000202200000020,
#BPMCHANGE 127.9
0020202200000000,
#BPMCHANGE 129.04
2000202200200030,
#BPMCHANGE 128
03300000, //52
#GOGOSTART
12101212,
02121010,
1022011100100070,
000000000000000000000000000000000000080000000000,
40040111,
000000500000000000000000000000000008000000000000,
#GOGOEND
11201121,
01210120, //60
11201121,
01210220,
1022200010102030,
0, //64
#END

COURSE:Normal
LEVEL:4
BALLOON:7,7,7,7,7,7
SCOREINIT:800,4440
SCOREDIFF:270
#START
#GOGOSTART
0202,
0222,
0101,
0111,
0202,
0221,
3000000300000070,
000000000000000000000000000000000000080000000000, //8
#GOGOEND
0303,
0303,
0404,
0404,
0303,
0303,
0406,
000000000000000000000000000000000008000000000000, //16
10101011,
1111,
20202022,
2222,
10101011,
1111,
30330220,
30330000, //24
11100111,
01010000,
11100111,
01010017,
00000817,
00000817,
000000080600,
000000000000000008000000000000000000000000000000, //32
#GOGOSTART
10101011,
01101010,
20202022,
02202020,
10101011,
01101010,
3000000300000070,
000000000000000000000000000000000000080000000000, //40
#GOGOEND
0101,
0101,
20202022,
02202020,
0101,
0111,
20202022,
02202000, //48
#BPMCHANGE 127.08
20000002,
#BPMCHANGE 127.9
0,
#BPMCHANGE 129.04
20000003,
#BPMCHANGE 128
03300000, //52
#GOGOSTART
10101011,
01101010,
3000000300000070,
000000000000000000000000000000000000080000000000,
40040005,
000000000000000000000000000000000000000008000000,
#GOGOEND
0303,
0303, //60
0404,
0404,
30303033,
0, //64
#END

COURSE:Easy
LEVEL:3
BALLOON:7,7,7,7,7,7
SCOREINIT:610,5460
SCOREDIFF:213
#START
#GOGOSTART
0202,
0222,
0101,
0111,
0202,
0222,
3000000300000070,
000000000000000000000000000000000000080000000000, //8
#GOGOEND
0303,
0303,
0404,
0404,
0303,
0303,
0406,
000000000000000000000000000000000008000000000000, //16
0110,
1100,
0222,
0202,
0110,
1100,
30330000,
30330000, //24
10100001,
01010000,
10100001,
01010007,
00000807,
00000807,
000000080600,
000000000000000008000000000000000000000000000000, //32
#GOGOSTART
1111,
1110,
2222,
2220,
1111,
1110,
3000000300000070,
000000000000000000000000000000000000080000000000, //40
#GOGOEND
0101,
0101,
0222,
0222,
0101,
0111,
0202,
0220, //48
#BPMCHANGE 127.08
20000002,
#BPMCHANGE 127.9
0,
#BPMCHANGE 129.04
20000003,
#BPMCHANGE 128
03300000, //52
#GOGOSTART
1111,
1110,
3000000300000070,
000000000000000000000000000000000000080000000000,
40040005,
000000000000000000000000000000000000000008000000,
#GOGOEND
0303,
0303, //60
0404,
0404,
30303033,
0, //64
#END
