//TJADB Project
TITLE:I wonder
TITLEJA:I wonder
SUBTITLE:--From the Drama "Kukuri-Who Fell in Love with Me?"
SUBTITLEJA:ドラマ「くるり~誰が私と恋をした?~」より
BPM:125
WAVE:I wonder.ogg
OFFSET:-1.692
DEMOSTART:47.014 //shinuchi:
10440/7270/4980/3230 //Ignored
1 hidden barline

COURSE:Oni
LEVEL:5
BALLOON:10,6,6,10
SCOREINIT:940,3590
SCOREDIFF:273
#START
30202003,
00202122,
30202303,
00202120,
30202303,
00202122,
30030060,
000000000000000000000008000000000000000000000000, //8
10210120,
10140220,
10211121,
0011102000202000,
10210120,
10140220,
1010202010011020,
1020222011102020, //16
10220221,
0020200010022020,
10220221,
02210121,
1000100010101011,
1020202220101011,
10022127,
00080112, //24
#GOGOSTART
1110101022202020,
10221122,
1110101022202011,
11220122,
1120111020202011,
1010102220100070,
000000080000000000700000000000080000000000700000,
0000008010102220, //32(+1)
1110101022202020,
1022202010102010,
2220202010201022,
22110122,
1120222020202011,
1022201110222050,
000000000000000000000000000008000000000000600000,
000000000000000000000000000008000000000000000000, //40(+1)
#GOGOEND
30202003,
00202122,
30202303,
00202120,
30202303,
00202122,
30030060,
000000000000000000000008000000000000000000000000,
0,
0, //50(+1)
#END

COURSE:Hard
LEVEL:4
BALLOON:8,5,5,8,14
SCOREINIT:1130,5830
SCOREDIFF:400
#START
30000003,
00000222,
30000303,
00000220,
30000403,
00000222,
30030060,
000000000000000000000008000000000000000000000000, //8
10210111,
01000111,
01201011,
01200120,
10210111,
01000111,
0010200010010010,
3022, //16
10200220,
1202,
10200220,
1202,
10101110,
11201220,
30022127,
00080112, //24
#GOGOSTART
10102220,
10111120,
10102021,
01220122,
10201121,
01120107,
000000080000000000700000000000080000000000700000,
00080000, //32(+1)
10102220,
11201122,
20211012,
01210122,
10120202,
01010205,
000000000000000000000000000008000000000000600000,
000000000000000000000000000008000000000000000000, //40(+1)
#GOGOEND
30000003,
00000222,
30000303,
00000220,
30000403,
00000222,
30030090,
000000009000080000000000,
0,
0, //50(+1)
#END

COURSE:Normal
LEVEL:4
BALLOON:6,3,3,6,9
SCOREINIT:1300,9040
SCOREDIFF:650
#START
30000003,
0,
30000303,
0,
30000403,
0,
30030060,
000000000000000000000008000000000000000000000000, //8
10010200,
10020000,
10010200,
1,
10010200,
10020000,
10010200,
3002, //16
1202,
1202,
1202,
1202,
1111,
10110220,
30002007,
00080000, //24
#GOGOSTART
10101110,
1112,
10101011,
0202,
10201022,
01020107,
000000080000000000700000000000080000000000700000,
00080000, //32(+1)
10101110,
1212,
20202022,
0202,
10110202,
01010205,
000000000000000000000000000008000000000000600000,
000000000000000000000000000008000000000000000000, //40(+1)
#GOGOEND
30000003,
0,
30000303,
0,
30000403,
0,
30030090,
000000000000080000000000,
0,
0, //50(+1)
#END

COURSE:Easy
LEVEL:3
BALLOON:5,2,2,5,7
SCOREINIT:1170,14020
SCOREDIFF:873
#START
30000003,
0,
30000303,
0,
30000404,
0,
30030060,
000000000000000000000008000000000000000000000000, //8
10010000,
1,
10010000,
2,
10010000,
1,
10010000,
2, //16
0202,
0200,
0202,
0200,
1110,
1110,
30000007,
00080000, //24
#GOGOSTART
12,
0111,
10002002,
0,
10101002,
02020007,
000000080000000000700000000000080000000000700000,
00080000, //32(+1)
12,
0222,
10002002,
0,
10010002,
00020005,
000000000000000000000000000008000000000000600000,
000000000000000000000000000008000000000000000000, //40(+1)
#GOGOEND
30000003,
0,
30000303,
0,
30000404,
0,
30030090,
000000000000080000000000,
0,
0, //50(+1)
#END
