//TJADB Project
TITLE:Idol Warrior (feat. Hatsune Miku)
TITLEJA:アイドル戦士(feat. 初音ミク)
SUBTITLE:--Mitchie M
SUBTITLEJA:Mitchie M
BPM:97.6
WAVE:Idol Warrior.ogg
OFFSET:-1.680
DEMOSTART:30.293

COURSE:Oni
LEVEL:8
BALLOON:14
SCOREINIT:2060
SCOREDIFF:0
#START
#BARLINEOFF
#MEASURE 1/8
11,
#BARLINEON
#MEASURE 4/4
1000000000000111,
#MEASURE 3/8
2,
#MEASURE 2/4
#BPMCHANGE 130
#SCROLL 0.98
10001110,
#MEASURE 4/4
#SCROLL 1
#GOGOSTART
4000
#GOGOEND
000000002210, //5
1020102010201202,
1020102010201120,
1020102010201202,
1020102010201120,
1020112010201212,
1020112210201120,
1020112210221212,
1020120210201120, //13
3030221211121110,
3030221212111210,
3030404000221000,
1120221020101110,
1202112011201202,
1122102011201020,
1120102011201210,
1122112011201220, //21
1202112011201202,
1122102011201220,
1122112010210210,
1120212011202120,
300222100111,
20201400,
300222100111,
500000000000000000000000000000000008000000000000, //29
1000102010021002,
100000101020200100200200,
101020100200102020100200,
101020100400000000000000,
1200120030002210, //34
#GOGOSTART
2012112010121120,
3000300030030020,
1021121010211210,
1122121012012010,
2012112010121120,
3000300030030020,
1022112012021011,
2012012011202010, //42
2012112010121120,
#GOGOEND
70000840,
#GOGOSTART
1021121010211210,
1122121012012010,
2012112010121120,
1220122011221020,
1022112012021011, //49
2012012011204011,
2012012011204011,
201211201122
#SCROLL 3.81
6000,
#BARLINEOFF
000000000000000000000008
#SCROLL 1
000000000000400000000000,
#BARLINEON
0000111110000000,
#GOGOEND
0, //55
#END

COURSE:Hard
LEVEL:5
BALLOON:13,12
SCOREINIT:3330
SCOREDIFF:0
#START
#BARLINEOFF
#MEASURE 1/8
11,
#BARLINEON
#MEASURE 4/4
1000000000000111,
#MEASURE 3/8
1,
#MEASURE 2/4
#BPMCHANGE 130
#SCROLL 0.98
11,
#MEASURE 4/4
#SCROLL 1
#GOGOSTART
4000
#GOGOEND
000000001110, //5
1020102010201101,
12121210,
1020102010201101,
12121120,
1020102010201101,
12121210,
1020102010201101,
12121120, //13
33011120,
33012120,
3030404000222000,
500000000000000000000000000000000000000008000000,
1101101000102000,
1101101000102000,
1101101000102000,
500000000000000000000000000000000000000008000000, //21
1101101000102000,
1101101000102000,
1000102010010010,
7008,
300222200111,
10201200,
100222200111,
500000000000000000000000000000000008000000000000, //29
1000200010011001,
100111100200,
111000111000,
101010000400000000000000,
1100110030000000, //34
#GOGOSTART
12121122,
3000300030030000,
12121212,
1110100040040000,
12121122,
3000300030030000,
1020102011011000,
2001001000404000, //42
12121122,
#GOGOEND
7008,
#GOGOSTART
12121212,
1110100040040000,
12121122,
1020102010110020,
1020102011011000, //49
1002001000004000,
1002001000004000,
300400300000
#SCROLL 3.81
6000,
#BARLINEOFF
000000000000000000000008
#SCROLL 1
000000000000400000000000,
#BARLINEON
0000111110000000,
#GOGOEND
0, //55
#END

COURSE:Normal
LEVEL:4
BALLOON:8,8
SCOREINIT:5680
SCOREDIFF:0
#START
#BARLINEOFF
#MEASURE 1/8
0,
#BARLINEON
#MEASURE 4/4
000000000000500000000000000000000008000000000000,
#MEASURE 3/8
0,
#MEASURE 2/4
#BPMCHANGE 130
#SCROLL 0.98
11,
#MEASURE 4/4
#SCROLL 1
#GOGOSTART
4
#GOGOEND
000, //5
12101210,
12001010,
12101210,
12002020,
12101210,
12001010,
12101210,
12002020, //13
33000000,
33000000,
33330220,
500000000000000000000000000000000000000008000000,
10200120,
10200120,
10200120,
500000000000000000000000000000000000000008000000, //21
10200120,
10200120,
1210,
7008,
3221,
10201200,
1221,
500000000000000000000000000000000008000000000000, //29
1212,
3300,
2121,
20040000,
1130, //34
#GOGOSTART
10111010,
3330,
20222020,
1010100040040000,
10111010,
3330,
1212,
10010040, //42
10111010,
#GOGOEND
7008,
#GOGOSTART
20222020,
1010100040040000,
10111010,
3330,
1212, //49
10010040,
10010040,
300300
#SCROLL 3.81
60,
#BARLINEOFF
000000000000000000000008
#SCROLL 1
000000000000400000000000,
#BARLINEON
00111000,
#GOGOEND
0, //55
#END

COURSE:Easy
LEVEL:2
BALLOON:6,6
SCOREINIT:11540
SCOREDIFF:0
#START
#BARLINEOFF
#MEASURE 1/8
0,
#BARLINEON
#MEASURE 4/4
000000000000500000000000000000000008000000000000,
#MEASURE 3/8
0,
#MEASURE 2/4
#BPMCHANGE 130
#SCROLL 0.98
0,
#MEASURE 4/4
#SCROLL 1
#GOGOSTART
4
#GOGOEND
000, //5
1012,
1011,
1012,
1011,
1012,
1011,
1012,
1011, //13
3,
3,
3300,
500000000000000000000000000000000000000008000000,
0202,
0202,
0202,
500000000000000000000000000000000000000008000000, //21
0202,
0200,
11,
7008,
32,
11,
12,
500000000000000000000000000008000000000000000000, //29
11,
3,
22,
20040000,
0, //34
#GOGOSTART
11,
3330,
21,
14,
11,
3330,
21,
500000000000000000000000000008000000000000000000, //42
11,
#GOGOEND
7008,
#GOGOSTART
21,
14,
11,
3330,
21, //49
500000000000000008000000000000000000400000000000,
500000000000000008000000000000000000400000000000,
500000000000000000000008000000000000
#SCROLL 3.81
600000000000,
#BARLINEOFF
000000000000000008000000
#SCROLL 1
000000000000400000000000,
#BARLINEON
03,
#GOGOEND
0, //55
#END
