//TJADB Project
TITLE:Senkou Tenbu
TITLEJA:é–ƒå…‰å¤Ščˆž
SUBTITLE:--Juggernaut.
SUBTITLEJA:Juggernaut.
BPM:198
WAVE:Senkou Tenbu.ogg
OFFSET:-1.396
DEMOSTART:93.810

COURSE:Oni
LEVEL:10
BALLOON:
SCOREINIT:1110
SCOREDIFF:0
#START
#MEASURE 2/4
0,
#MEASURE 4/4
1010201020221022,
100111200200100000100222,
11211212,
1022102120121000,
1010201020221022,
100111200200100000100222,
1010201110221120,
10000022, //9
3000200020221020,
300222100300200000300200,
30202012,
300000101010100100100100200000200000100000100000,
300000000000100000200200100000000000200000101010,
1010201010201111,
100000100000200000200000100100100100101010101010,
100222100200100000400000,
1000100011101010,
3000300030222000, //19
1001102210201020,
1022102212221020,
100000000200100000100000500000000000000008000000,
100000202020100000100100200000000000300000000000,
1001102210201120,
1022102212221020,
100000000200100000100000500000000000000008000000,
1222122211104000, //27
1010201020112012,
1011221020122211,
1010201020112012,
100000100100202020200200100000200200100000200000,
1010201020112012,
1011221020122211,
1010201020112012,
1022102211112000, //35
500008000000200000200200100200200000200000200200,
1020222010202020,
500008000000200000200000100200200000200000200200,
1222121211202020,
500008000000200000200200100200202020200000200200,
1220222010201220,
500008000000200000200000100200200000200200202020,
1022101012202220, //43
500008000000100000200200100200200000100000200200,
1020122010201220,
500008000000100000200000100200200000100000200200,
1222121211201220,
500008000000100000200200100200202020100000200200,
1220122010201220,
500008000000100000200000100200200000100200202020,
1022121012203040, //51
#GOGOSTART
201010201011201020101020,
102011201020101020102010,
200010200010222222101010,
202211201022201122100010,
201010201011201020101020,
102011201020101020102010,
200010200010222222101010,
202211201022201122102010, //59
#GOGOEND
3,
0,
0,
200000200200200000200000101010100000400000000000,
10201120,
10201120,
1010201111102222,
10000022, //67
3000200020221020,
300222100300200000300200,
30202012,
300000101010100100100100200000200000100000100000,
300000000000100000200200100000000000200000101010,
1010201010201111,
100000100000200000200000100100100100101010101010,
1004,
100000200100200100202020100200100200100100200000,
1001001010004000, //77
#GOGOSTART
300000100100200000100100200000200200100000202020,
100000101010100000200000100000000200100000200000,
3011201120112121,
200000202020100000100200200000400000300000300000,
300000000000400000100100200000200200100000202020,
100000101010100000200000100000000200100000200000,
1111202211112010,
100222100200300000100200, //85
300000100100200000100100200000200200100000202020,
100000102020200000100000200000000200100000200000,
300000100100200000100100200000202020100200100200,
1022101220003030,
300000000000
#SCROLL 3
400000
#SCROLL 1
100100200000200200100000202020,
100000101010100000200000100000000200100000200000,
1111202211112010,
100000202010100000200000100000000000100100100000,
#GOGOEND
4,
0, //95
#END

COURSE:Hard
LEVEL:7
BALLOON:
SCOREINIT:1860
SCOREDIFF:0
#START
#MEASURE 2/4
0,
#MEASURE 4/4
10202210,
11221010,
10201210,
12122110,
10202210,
11221010,
11211210,
10000022, //9
30202210,
30230030,
3221,
30112210,
30121020,
11210210,
1010202011101110,
12121040,
10101110,
3332, //19
10121012,
10121210,
100000000000100000100000500000000000000008000000,
10111030,
10121012,
10121210,
100000000000100000100000500000000000000008000000,
1000100011104000, //27
11212120,
1011101020102000,
11212120,
1011101020201000,
11212120,
1011101020102000,
11212120,
1011101010202000, //35
500008000000200000000000100000200000200000200000,
10221020,
500008000000200000000000100000200000200000200000,
12221020,
500008000000200000000000100000200000200000200000,
12201010,
500008000000200000000000100000200000200000200000,
10111220, //43
500008000000200000000000100000200000200000200000,
10221020,
500008000000200000000000100000200000200000200000,
12221020,
500008000000200000000000100000200000200000200000,
12201010,
500008000000200000000000100000200000200000200000,
10111040, //51
#GOGOSTART
201101101100,
102201102200,
201102222200,
102201111100,
201101101100,
102201102200,
201102222200,
102201111100, //59
#GOGOEND
3,
0,
0,
20221040,
1212,
1212,
10201120,
10000022, //67
30202210,
30230030,
3221,
30112210,
30121020,
11210210,
1010202011101110,
1004,
22,
1001001010002020, //77
#GOGOSTART
30212211,
1011102010001020,
30212121,
2022201040403030,
30402211,
1011102010001020,
1110202011102000,
1011101030000000, //85
30212122,
1011102010001020,
3000201020222020,
1011101020003030,
30402211,
1011102010001020,
1110202011102000,
1022202010001000,
#GOGOEND
4,
0, //95
#END

COURSE:Normal
LEVEL:5
BALLOON:
SCOREINIT:3590
SCOREDIFF:0
#START
#MEASURE 2/4
0,
#MEASURE 4/4
12,
1110,
12,
1111,
12,
1110,
1122,
1001, //9
32,
30030030,
32,
3122,
31,
10010010,
10101110,
1114,
0,
3332, //19
1110,
1110,
100000000000100000000000500000000000000000000008,
0033,
1110,
1110,
100000000000100000000000500000000000000000000008,
0034, //27
1122,
10111000,
1122,
10102220,
1122,
10111000,
1122,
10102220, //35
500000000008000000000000100000000000200000000000,
1011,
500000000008000000000000100000000000200000000000,
1021,
500000000008000000000000100000000000200000000000,
1011,
500000000008000000000000100000000000100000000000,
11, //43
500000000008000000000000100000000000200000000000,
1011,
500000000008000000000000100000000000200000000000,
1021,
500000000008000000000000100000000000200000000000,
1011,
500000000008000000000000100000000000100000000000,
13, //51
#GOGOSTART
2211,
2210,
2211,
1210,
2211,
2210,
2211,
1212, //59
#GOGOEND
3,
0,
0,
0004,
1202,
1202,
1212,
1001, //67
32,
30030030,
32,
3022,
31,
10010010,
10101110,
1004,
0,
1014, //77
#GOGOSTART
3221,
11101000,
3221,
22202000,
3421,
11101000,
10111011,
1130, //85
3221,
11102000,
3221,
22202000,
3421,
11101000,
10111011,
1110,
#GOGOEND
4,
0, //95
#END

COURSE:Easy
LEVEL:3
BALLOON:
SCOREINIT:6640
SCOREDIFF:0
#START
#MEASURE 2/4
0,
#MEASURE 4/4
1,
11,
1,
11,
1,
1,
11,
1, //9
3,
30030030,
3,
32,
31,
1,
11,
1110,
0,
3330, //19
1,
1,
100000000000000000000000500000000000000000000008,
03,
1,
1,
100000000000000000000000500000000000000000000008,
03, //27
12,
1,
12,
11,
12,
1,
12,
12, //35
500000000000000000000008000000000000000000000000,
11,
500000000000000000000008000000000000000000000000,
1110,
500000000000000000000008000000000000000000000000,
12,
500000000000000000000008000000000000000000000000,
1110, //43
500000000000000000000008000000000000000000000000,
11,
500000000000000000000008000000000000000000000000,
1110,
500000000000000000000008000000000000000000000000,
12,
500000000000000000000008000000000000000000000000,
1130, //51
#GOGOSTART
22,
2,
22,
11,
22,
2,
22,
11, //59
#GOGOEND
3,
0,
0,
0004,
1,
1,
11,
1, //67
3,
30030030,
3,
32,
31,
1,
1111,
1004,
0,
0004, //77
#GOGOSTART
32,
1110,
32,
2220,
32,
1110,
11,
1130, //85
32,
1110,
32,
2220,
32,
1110,
11,
1130,
#GOGOEND
4,
0, //95
#END
