//TJADB Project
TITLE:On-Party!
TITLEJA:On-Party!
SUBTITLE:--ColorfulPeach
SUBTITLEJA:カラフルピーチ
BPM:182
WAVE:On-Party.ogg
OFFSET:-1.066
DEMOSTART:65.537

COURSE:Oni
LEVEL:6
BALLOON:13,32,17
SCOREINIT:2860
SCOREDIFF:0
#START
20020022,
20220220,
20220222,
00002022,
00220222,
00222220,
10110017,
0,
8, //9
1110201000102020,
10210202,
1110201000002020,
3344,
1414,
11221122,
1122,
03330000, //17
11211121,
1122,
11211121,
10101222,
10201022,
11211000,
30030030,
0011101020000000, //25
1011100010111000,
11221020,
1011100010112020,
10102220,
1110202000102000,
1110202000102000,
2220000020000020,
1122, //33
1000111020001010,
0010002000101110,
1000111020001010,
12020120,
1000111020001010,
0010002000101110,
1000111020001010,
02022001, //41
1110200011102000,
1110201020102000,
10101022,
3330,
7,
0,
08,
3340, //49
#GOGOSTART
1110201110102020,
1000201110102020,
5,
000008000000000000000000100000100000200000100000,
0010201110102020,
1110201000002020,
1000201110202010,
0010201110200000, //57
1110201110102020,
1000201110102020,
7,
00801122,
1000100011102020,
1000201110202010,
5,
000008000000000000000000100000200000100000200000,
#GOGOEND
30130003,
02222000, //67
#END

COURSE:Hard
LEVEL:4
BALLOON:10,23,13,8
SCOREINIT:4930
SCOREDIFF:0
#START
20020000,
20020000,
20020002,
00000002,
00020002,
0220,
10010007,
0,
8, //9
10010020,
10110201,
00110020,
3344,
33,
600000000000000000000000000000000008000000000000,
1122,
03330000, //17
11101000,
1120,
11101000,
1110,
1212,
10111000,
30030030,
02, //25
11,
11101020,
1122,
1110,
20220020,
20220020,
22,
1110, //33
10102011,
01020000,
10102011,
02020000,
10102011,
01020000,
10102011,
02022000, //41
1112,
1122,
10101022,
3330,
9,
09,
8,
3330, //49
#GOGOSTART
30110022,
10110220,
5,
000008000000000000000000200000000000200000100000,
00110211,
00110022,
10110211,
01110200, //57
30110022,
10110220,
7,
00802220,
10101022,
10110202,
5,
000008000000000000000000100000100000100000000000,
#GOGOEND
10110017,
08, //67
#END

COURSE:Normal
LEVEL:3
BALLOON:9,13,9,5
SCOREINIT:7700
SCOREDIFF:0
#START
2,
2,
20000002,
00000002,
00000002,
0,
10010007,
0,
8, //9
10010000,
10110001,
00110000,
1110,
33,
600000000000000000000000000008000000000000000000,
1111,
0, //17
11,
1,
11,
1110,
11,
1110,
30030030,
0, //25
11,
1110,
11,
1110,
20020000,
20020000,
11,
2, //33
10101001,
0,
10101001,
0,
10101001,
0,
10101001,
0, //41
1111,
1120,
1111,
3330,
9,
09,
8,
3330, //49
#GOGOSTART
30010000,
10110000,
5,
000008000000000000000000200000000000100000100000,
00110011,
00110000,
10110101,
00110100, //57
30010000,
10110000,
7,
0820,
1110,
10110000,
5,
000008000000000000000000200000000000000000000000,
#GOGOEND
10110007,
08, //67
#END

COURSE:Easy
LEVEL:2
BALLOON:12,11,8,4
SCOREINIT:16850
SCOREDIFF:0
#START
1,
0,
1,
0,
1,
0,
7,
0,
8, //9
1,
1,
1,
1,
33,
600000000000000000000000000008000000000000000000,
11,
0, //17
1,
1,
1,
11,
1,
1,
30030030,
0, //25
11,
1,
11,
1,
2,
2,
22,
2, //33
11,
0,
11,
0,
11,
0,
11,
0, //41
11,
1,
11,
1,
9,
09,
8,
33, //49
#GOGOSTART
3,
1,
5,
000008000000000000000000000000000000000000100000,
00000001,
0,
10000001,
0, //57
3,
1,
7,
0800,
1,
1,
5,
000008000000000000000000000000000000000000000000,
#GOGOEND
10000007,
08, //67
#END
