//TJADB Project
TITLE:Lightning Boys
TITLEJA:Lightning Boys
SUBTITLE:--Sadakichi
SUBTITLEJA:さだきち
BPM:225
WAVE:Lightning Boys.ogg
OFFSET:-1.601
DEMOSTART:56.929

COURSE:Edit
LEVEL:10
BALLOON:10,29,44
SCOREINIT:960
SCOREDIFF:0
#START
3000002011100010,
02002003,
0000201110100010,
02020100,
1022201021201022,
2010212012222210,
3002203000203002,
2030002030221222, //8
1000200220200022,
2002202000222020,
1222221222221222,
1002201002201212,
100000200000300000002020200000300000000200200000,
300000002020200000300000000200200000500000000000,
000000000000000000000000000000000000000008000000,
2020202020221111, //16
1010100010111011,
1011101110111020,
1010100010111011,
1011101110112110,
1010100010111011,
1011101110111010,
2012102012102021,
2121202212212210, //24
1010100010111211,
1011101110112110,
1010100010111211,
1011101110112110,
#SCROLL 1.25
202020200100200000200000000200100000202020200100,
200000200000000200100000202020200100200000700000,
#SCROLL 1.5
000000000000000000800000200200200200200200202020,
21211211212120
#SCROLL 1
#GOGOSTART
30, //32
0011201020112010,
0011201022112010,
000000100100200000100000200000100100200000101010,
100222200111100222200300,
0011201011211030,
0011201012121030,
000000100100200000100000100200200200100000202020,
200111100222200111100300, //40
0011201020112010,
0011201020112210,
000000100100200000100000200000100100200000101010,
100222200111100222200300,
0011201020121020,
0210002002100070,
0,
0000008
#GOGOEND
4,
000000000222200200200200,
0220002002200050,
000000000000000000000000000000000000000008000000,
21112111211120
#GOGOSTART
30, //52
0022201110222011,
1022201010222210,
0022101110221011,
1022102010221210,
0012101110121011,
1012101010121210,
#GOGOEND
2222101212102222,
10121212121020
#GOGOSTART
20, //60
111020202020111020202020,
111020202020111020200200,
111020202020111020202020,
100220000220000220000010,
001020202220100220100220,
100000202000100000202000100000202000500008000000,
101010100200100200100200101010100200100200100200,
101010100200101010100200101020101020101020200000, //68
#GOGOEND
#MEASURE 8/4
#SCROLL 0.5
1000000200001000,
1000200100102022,
1000200100102020,
#MEASURE 4/4
#SCROLL 0.75
11201120,
2011101020201010, //73
#SCROLL 1
201010201010111020201010,
201010202020111020201010,
201010202010111020201010,
200010002000100020002000100100100100200000100000,
0012222122221010,
0012222122221010,
000200200000100000002020200000100000000200200000,
100000002020200000100000200200100000200200
#GOGOSTART
100000, //81
0010102210221012,
2212122212121010,
2210102210221212,
200200100200100020100000000020100000000020100000,
1121122211211222,
1121122122121010,
#GOGOEND
2212102212102212,
10221212212210
#GOGOSTART
20, //89
0010102210221012,
2212122212121010,
2210102210221212,
2212122210121010,
#GOGOEND
000200100000300000002020100000300000000200100000,
300000002020100000300000200000100100100000200000,
#GOGOSTART
101020101020101020200100200100200100201020102010,
#GOGOEND
24, //97
#GOGOSTART
3000203002203000,
2030022030003000,
300000000200200000300000002020200000300000000200,
200300022200300000300000,
7,
0,
0000008
#GOGOEND
3,
0,
0,
0,
0, //108
#END

COURSE:Oni
LEVEL:10
BALLOON:10
SCOREINIT:1210
SCOREDIFF:0
#START
30021101,
02002003,
00201101,
02020100,
1022201022201022,
2010222012221020,
30230230,
2030002030221022, //8
10202202,
20220223,
02202202,
3002203002201111,
12302302,
30230250,
000000000000000000000000000000000000000008000000,
2020202020221110, //16
11101011,
1011101010111020,
11101011,
1011101010112010,
11101011,
1011101010111010,
2022102022102022,
1020102011111020, //24
1010100010111010,
1011101010112000,
1010100010111010,
1011101010112000,
#SCROLL 1.25
2210102000102210,
1020001022101070,
#SCROLL 1.5
0008,
11221122121210
#SCROLL 1
#GOGOSTART
30, //32
0011201011102010,
0011201022202010,
0011201011102011,
1022201110222030,
0010201011111030,
0010201022222030,
0010201011111022,
2011102220111030, //40
0011201011102010,
0011201022202010,
0011201011102011,
1022201110222030,
0010201022222010,
01020205,
0,
000000000000000000000000000000000008000000
#GOGOEND
400000,
00020222,
02020205,
0,
000000000000000000000000000000000008000000
#GOGOSTART
300000, //52
0022102010221020,
1022101010221110,
0022102010221020,
12211221,
0022102010221020,
1022101010221110,
#GOGOEND
0012100012100012,
10001212121020
#GOGOSTART
10, //60
012222101202,
100010202020100010200200,
012222101202,
102002002001,
012222102102,
102102102102,
1122121211221212,
1112111212121000, //68
#GOGOEND
#MEASURE 8/4
#SCROLL 0.5
2000000200001000,
2000200100102000,
2000200100102020,
#MEASURE 4/4
#SCROLL 0.75
1212,
1011101020201010, //73
#SCROLL 1
111211112211,
111221112211,
111211112211,
101010202010100100200100,
0010201022221010,
0010201022221010,
0220100220100220,
10022010221022
#GOGOSTART
10, //81
0010102210221012,
2210102210221010,
0010102210221012,
2210101000100010,
2210102210221110,
2210102210221110,
#GOGOEND
2011102011102011,
10201110201110
#GOGOSTART
20, //89
0010102210221012,
2210102210221010,
0010102210221012,
2210102210221010,
#GOGOEND
02302302,
3000203020111020,
#GOGOSTART
1121121121121212,
#GOGOEND
14, //97
#GOGOSTART
3002203002203002,
2030022030003000,
3002203002203002,
2030022030003000,
5,
0,
000000000000000000000000000000000008000000
#GOGOEND
300000,
0,
0,
0,
0, //108
#END

COURSE:Hard
LEVEL:8
BALLOON:12
SCOREINIT:1830
SCOREDIFF:0
#START
30021101,
02002003,
00201101,
02020100,
12212212,
21221020,
30230230,
23023012, //8
10202202,
20220223,
02202202,
30230230,
11302302,
30230250,
000000000000000000000000000008000000000000000000,
2020202020221020, //16
11101011,
1000100010111000,
11101011,
1000100010111000,
11101011,
1000100010111000,
1010200022200022,
22120222, //24
11101011,
1000100010111000,
11101011,
1000100010111000,
#SCROLL 1.25
21120021,
12002117,
#SCROLL 1.5
0,
8000000
#SCROLL 1
#GOGOSTART
3, //32
0010200011102010,
0010200011102010,
0010200011102010,
01010103,
0010200022202030,
0010200022202030,
0010200022202010,
01010103, //40
0010200011102010,
0010200011102010,
0010200011102010,
01010103,
0010200022202010,
01020205,
0,
000000000000000000000008000000000000000000
#GOGOEND
400000,
00020222,
02020205,
0,
000000000000000000000008000000000000000000
#GOGOSTART
300000, //52
0011100010201000,
12111221,
0011100010201000,
12211221,
0011100010201000,
12111223,
#GOGOEND
00300300,
3003011
#GOGOSTART
3, //60
000101100101,
100000100010100000000200,
000101100101,
102002002001,
000102002002,
002002002100,
5,
000000000000000000000000000008000000000000000000, //68
#GOGOEND
#MEASURE 8/4
#SCROLL 0.5
2000000200001000,
2000200100000000,
2000200100102020,
#MEASURE 4/4
#SCROLL 0.75
12,
12, //73
#SCROLL 1
100200111111,
100200111111,
100200111111,
10201121,
0010200011102010,
0010200011102030,
02302302,
3003030
#GOGOSTART
3, //81
0010100010101011,
1010101000221010,
0010100010101011,
11110101,
0010100010221010,
0010100010221010,
#GOGOEND
21121121,
1211211
#GOGOSTART
2, //89
0010100010101011,
1010101010221010,
0010100010101011,
1010101010221010,
#GOGOEND
02302302,
3000203000111000,
#GOGOSTART
1101101010111011,
#GOGOEND
14, //97
#GOGOSTART
30230230,
23023030,
30230230,
23023030,
5,
0,
000000000000000000000008000000000000000000
#GOGOEND
300000,
0,
0,
0,
0, //108
#END

COURSE:Normal
LEVEL:5
BALLOON:10,6
SCOREINIT:2910
SCOREDIFF:0
#START
30001101,
00000003,
00101101,
0,
10010010,
01001020,
30030030,
03003030, //8
5,
0,
000000000000000000000000000008000000000000000000,
40040040,
00300300,
30030050,
000000000000000000000000000008000000000000000000,
22222020, //16
11101010,
1110,
11101011,
1110,
11101010,
1110,
10200200,
20020020, //24
11101010,
1110,
11101011,
1110,
#SCROLL 1.25
11120011,
12001117,
#SCROLL 1.5
0,
8000000
#SCROLL 1
#GOGOSTART
3, //32
00201011,
00201011,
00201101,
01010103,
00201011,
00201011,
00201111,
01010103, //40
00201021,
00201021,
00201021,
01010103,
00201111,
01020205,
0,
000000000000000000000008000000000000000000
#GOGOEND
400000,
00020222,
02020205,
0,
000000000000000000000008000000000000000000
#GOGOSTART
300000, //52
01101010,
10101201,
01101010,
10201111,
01101010,
10101203,
#GOGOEND
00300300,
3003001
#GOGOSTART
3, //60
0112,
10101002,
0112,
102002002001,
000002002002,
002002002000,
5,
000000000000000000000000000008000000000000000000, //68
#GOGOEND
#MEASURE 8/4
#SCROLL 0.5
2000000200000000,
2000200100000000,
2000200100000000,
#MEASURE 4/4
#SCROLL 0.75
12,
12, //73
#SCROLL 1
1212,
1212,
1212,
10201021,
00201021,
00201023,
00300300,
3003030
#GOGOSTART
3, //81
01101111,
01110111,
01101111,
01110101,
01101011,
01101000,
#GOGOEND
20020020,
0200202
#GOGOSTART
2, //89
01101111,
01110111,
01101111,
01110111,
#GOGOEND
00300300,
30030110,
#GOGOSTART
7,
#GOGOEND
84, //97
#GOGOSTART
30030030,
03003030,
30030030,
03003030,
5,
0,
000000000000000000000008000000000000000000
#GOGOEND
300000,
0,
0,
0,
0, //108
#END

COURSE:Easy
LEVEL:4
BALLOON:7,8,6
SCOREINIT:3730
SCOREDIFF:0
#START
30000101,
00000003,
00000101,
0,
7,
08,
30030030,
03003030, //8
5,
0,
000000000000000000000000000008000000000000000000,
40040040,
00300300,
30030050,
000000000000000000000000000008000000000000000000,
0, //16
1111,
1110,
1111,
1110,
1111,
1110,
00200200,
20020020, //24
1111,
1110,
1111,
1110,
#SCROLL 1.25
10020010,
02001007,
#SCROLL 1.5
0,
8000000
#SCROLL 1
#GOGOSTART
3, //32
00101001,
00101001,
00101001,
01010103,
00202001,
00202001,
00202001,
01010103, //40
00101001,
00101001,
00101001,
01010103,
00202001,
01020205,
0,
000000000000000000000008000000000000000000
#GOGOEND
400000,
00000002,
02020205,
0,
000000000000000000000008000000000000000000
#GOGOSTART
300000, //52
0111,
10101001,
0111,
10201001,
0111,
10101003,
#GOGOEND
00300300,
3003000
#GOGOSTART
3, //60
0110,
10101002,
0110,
202002002001,
000002002002,
002002002000,
5,
000000000000000000000000000008000000000000000000, //68
#GOGOEND
#MEASURE 8/4
#SCROLL 0.5
2000000200000000,
2000200100000000,
2000200100000000,
#MEASURE 4/4
#SCROLL 0.75
12,
12, //73
#SCROLL 1
1110,
1110,
1112,
10101001,
00101001,
00101003,
00300300,
3003030
#GOGOSTART
3, //81
01101001,
01010101,
01101001,
01010101,
01101011,
01101000,
#GOGOEND
20020020,
0200202
#GOGOSTART
2, //89
01101001,
01010101,
01101001,
01010101,
#GOGOEND
00300300,
30030110,
#GOGOSTART
7,
#GOGOEND
84, //97
#GOGOSTART
30030030,
03003030,
30030030,
03003030,
5,
0,
000000000000000000000008000000000000000000
#GOGOEND
300000,
0,
0,
0,
0, //108
#END
