//TJADB Project
TITLE:Pitch Fader
TITLEJA:ピッチフェイダ
SUBTITLE:--Sho Okada(BNSI) feat. Bonjour Suzuki
SUBTITLEJA:Sho Okada(BNSI) feat. ボンジュール鈴木
BPM:180
WAVE:Pitch Fader.ogg
OFFSET:-0.852
DEMOSTART:27.844

COURSE:Edit
LEVEL:10
BALLOON:4,6,4,4,2,4,6,70
SCOREINIT:1150
SCOREDIFF:0
#START
#BARLINEOFF
#MEASURE 1/4
#SCROLL 4
0,
#BARLINEON
#MEASURE 4/4
0,
0,
0,
#SCROLL 2
0002, //5
#SCROLL 0.75
10012040,
1010200010021020,
100000000100200000100020,
100100200100100200100000100010002000100010002000,
101010000100200000200400,
11201212,
1000001020001022,
101202101220
#SCROLL 1
2222, //13
#GOGOSTART
101010100100100000100200200200200200000000000000,
101010100100100000200200200200200100200200100000,
101010100100100000100200200200200200000000000000,
101010100200200200200200100010001000200020002000,
101010100100100000100200200200200200000000000000,
101010100100100100200200100000100100200000100000,
301010201100301010201100,
302220302220302220000000, //21
#GOGOEND
1021001020012001,
1010200110121020,
1021001020012001,
100100200011102020102022,
1021001020012010,
1010200002220220,
1021001020012220,
#SCROLL 0.75
102020201020202010222222, //29
#SCROLL 1
1022201022010220,
100000100100000200202020100100000200100100200000,
#MEASURE 13/16
102220102211
#BPMCHANGE 135
0,
#MEASURE 4/4
100000200200100200000200
#BPMCHANGE 180
#SCROLL 0.75
100020200000202010001010,
#SCROLL 1
1022201022010212,
100000100000200200100000100000100200101010202000,
100000200200100200100200100100
#SCROLL 8
500008000000
#SCROLL 1
300000, //36
#MEASURE 3/4
#BPMCHANGE 135
#SCROLL 1.33
011022101120,
#BPMCHANGE 145
111022101120,
#BPMCHANGE 156
111022101120,
#BPMCHANGE 168
111022101120,
#BPMCHANGE 180
111022101120,
#BPMCHANGE 193
111022101120,
#BPMCHANGE 206
111022101120,
#BPMCHANGE 225
111022101120, //44
#MEASURE 4/4
#BPMCHANGE 180
#SCROLL 1
30020000,
10020010,
10020000,
1002000010002000,
#SCROLL 4
70870080,
70870878,
70870080,
#SCROLL 2
0002, //52
#SCROLL 1
#GOGOSTART
101010100100200000100200200200200100200000000000,
101010100100200200100200200200100200100100200000,
101010100100200000100200200200100200100000000000,
101010100200200200200200100020002000100020002000,
101010100100200000100200200100200100200000000000,
101010100100200200100200100100200200100100200000,
301010201100301010201100,
300000003000000300000000300000000000300000000000, //60
#MEASURE 9/8
4000
#BPMCHANGE 225
#SCROLL 0.8
20222
#BPMCHANGE 180
#SCROLL 1
1000
#BPMCHANGE 225
#SCROLL 0.8
12222,
#MEASURE 4/4
#BPMCHANGE 180
#SCROLL 1
100000000200100100200200100000200200500008000000,
000000100010001000200200100000200200101010100000,
102201102200302020302020,
100000100100200200100200100000200000100100200010,
100020100020100010200020500008000000101010101000,
3012202030211010,
#GOGOEND
202020000000300000000000300000000000
#SCROLL 8
500008000000, //68
#MEASURE 3/4
#BPMCHANGE 135
#SCROLL 1.33
#GOGOSTART
122021101210,
#BPMCHANGE 145
122021101210,
#BPMCHANGE 156
122021101210,
#BPMCHANGE 168
333333,
#BPMCHANGE 180
122021101210,
#BPMCHANGE 193
122021101210,
#BPMCHANGE 206
122021101210,
#MEASURE 6/4
#BPMCHANGE 225
11110111101111011110
#GOGOEND
#BPMCHANGE 180
#SCROLL 1
2210, //76
#MEASURE 4/4
300200101210,
100000001000200000000000100000000200100000200000,
101200101210,
#SCROLL 0.75
102212201222,
#SCROLL 1
100200101210,
100000001000200000000000100000000200100000200000,
101200101210,
#SCROLL 0.75
300000003000000030000000300000003000
#SCROLL 8
500008000000, //84
#MEASURE 3/4
#BPMCHANGE 135
#SCROLL 1.33
#GOGOSTART
111211121110,
#BPMCHANGE 145
111211121110,
#BPMCHANGE 156
111211121110,
#BPMCHANGE 168
111211121110,
#BPMCHANGE 180
111211121110,
#BPMCHANGE 193
111211121110,
#BPMCHANGE 206
111211121110,
#BPMCHANGE 222
111211121110,
#BPMCHANGE 235
111211121110, //93
#BPMCHANGE 250
122012201220,
122012201220,
122012201220,
122012201220,
#SCROLL 8
7,
#MEASURE 4/4
0,
0,
00000008, //101
#GOGOEND
#BARLINEOFF
#SCROLL 0.5
0,
0,
0000220000000000, //104
#END

COURSE:Oni
LEVEL:9
BALLOON:3,5,3,3,2,3,5,20
SCOREINIT:1580
SCOREDIFF:0
#START
#BARLINEOFF
#MEASURE 1/4
#SCROLL 4
600008000000,
#BARLINEON
#MEASURE 4/4
600000000000000000000000000008000000600000000000,
000000000000000008000000600008000000600008000000,
600000000000000000000000000008000000600000000000,
000000000000000000000008000000000000000000000000, //5
#SCROLL 1
00424200,
10212120,
10112120,
1002002010002000,
10424201,
20221012,
11112120,
1022201022200000, //13
#GOGOSTART
1111101120002000,
1110201110121020,
1111101120002000,
1112201030004000,
1111101120001000,
1110201110102010,
300020200100300020200100,
322322322000, //21
#GOGOEND
1011001020002000,
1010200010121020,
1011001020002010,
100100200000101010202020,
1011001020002000,
1010200010220220,
1011001020002220,
102211102211, //29
1010201000112010,
1011201010021020,
#MEASURE 13/16
101020100010
#BPMCHANGE 135
#SCROLL 1.33
2,
#MEASURE 4/4
100100100100100000200200
#BPMCHANGE 180
#SCROLL 1
200000001000100010001000,
1010201000112010,
1011201010021020,
100000100000200000100100100000500008000000
#SCROLL 0.75
300000, //36
#MEASURE 3/4
#BPMCHANGE 135
#SCROLL 1
001010101110,
#BPMCHANGE 145
201010101110,
#BPMCHANGE 156
201010101110,
#BPMCHANGE 168
201010101110,
#BPMCHANGE 180
201010101110,
#BPMCHANGE 193
201010101110,
#BPMCHANGE 206
201010101110,
#BPMCHANGE 225
201010101110, //44
#MEASURE 4/4
#BPMCHANGE 180
30222200,
20222220,
20222220,
0,
#SCROLL 4
70870080,
70870878,
70870080,
#SCROLL 1
0, //52
#GOGOSTART
1111201120004000,
1110201110121020,
1112101120004000,
1112201030004000,
1121101120003000,
1120201120201020,
300010200100300010200100,
300000003000000300000000300000000000300000000000, //60
#MEASURE 9/8
7000
#BPMCHANGE 225
#SCROLL 0.8
00000
#BPMCHANGE 180
#SCROLL 1
0000
#BPMCHANGE 225
#SCROLL 0.8
00000,
#MEASURE 4/4
#BPMCHANGE 180
#SCROLL 1
0833,
1111112020201000,
1111212030003000,
1112121020101020,
2111211030003000,
3011102030111010,
#GOGOEND
200000000000300000000000300000000000500008000000, //68
#MEASURE 3/4
#BPMCHANGE 135
#GOGOSTART
101010202220,
#BPMCHANGE 145
101010202220,
#BPMCHANGE 156
101010202220,
#BPMCHANGE 168
333333,
#BPMCHANGE 180
101010202220,
#BPMCHANGE 193
101010202220,
#BPMCHANGE 206
101010202220,
#MEASURE 6/4
#BPMCHANGE 225
600000000000000000000000000000000000000000000000000000000008
#GOGOEND
#BPMCHANGE 180
000000000000, //76
#MEASURE 4/4
300200101210,
101200111200,
100200101210,
111121,
100200101210,
101200111200,
100200101210,
333330, //84
#MEASURE 3/4
#BPMCHANGE 135
#GOGOSTART
401010101110,
#BPMCHANGE 145
401010101110,
#BPMCHANGE 156
401010101110,
#BPMCHANGE 168
401010101110,
#BPMCHANGE 180
401010101110,
#BPMCHANGE 193
401010101110,
#BPMCHANGE 206
401010101110,
#BPMCHANGE 222
401010101110,
#BPMCHANGE 235
401010101110, //93
#BPMCHANGE 250
414141,
414141,
414141,
414141,
#SCROLL 4
6,
#MEASURE 4/4
0,
0,
000000000000000000000000000000000000000000000008, //101
#GOGOEND
#BARLINEOFF
#SCROLL 0.5
0,
0,
0200, //104
#END

COURSE:Hard
LEVEL:7
BALLOON:8,8,8,15
SCOREINIT:2580
SCOREDIFF:0
#START
#BARLINEOFF
#MEASURE 1/4
#SCROLL 3
600008000000,
#BARLINEON
#MEASURE 4/4
600000000000000000000000000008000000600000000000,
000000000000000008000000600008000000600008000000,
600000000000000000000000000008000000600000000000,
000000000000000000000008000000000000000000000000, //5
#SCROLL 1
00424200,
20222220,
20222220,
1002000010002000,
00424202,
20222022,
20222220,
10210200, //13
#GOGOSTART
1110001020000000,
1110001010002000,
1110001020000000,
1002000010002000,
1110001020000000,
1110001010002000,
300220300220,
3330, //21
#GOGOEND
1001001020002000,
11201110,
1001001020002000,
100100200000202020200000,
1001001020002000,
1010200011101000,
1001001020002000,
111, //29
10210020,
1010001010022020,
#MEASURE 13/16
100020100000
#BPMCHANGE 135
#SCROLL 1.33
0,
#MEASURE 4/4
100100
#BPMCHANGE 180
#SCROLL 1
100010,
10210020,
1010001010022020,
1021000
#SCROLL 0.75
3, //36
#MEASURE 3/4
#BPMCHANGE 135
#SCROLL 1
001110,
#BPMCHANGE 145
301110,
#BPMCHANGE 156
301110,
#BPMCHANGE 168
301110,
#BPMCHANGE 180
301110,
#BPMCHANGE 193
301110,
#BPMCHANGE 206
301110,
#BPMCHANGE 225
301110, //44
#MEASURE 4/4
#BPMCHANGE 180
3,
20222220,
20222220,
0,
7008,
7008,
7008,
0, //52
#GOGOSTART
1110001020004000,
1110001010002000,
1110001020004000,
1002000010002000,
1110001020004000,
1110001010002000,
300220300220,
3033, //60
#MEASURE 9/8
7000
#BPMCHANGE 225
#SCROLL 0.8
00000
#BPMCHANGE 180
#SCROLL 1
0000
#BPMCHANGE 225
#SCROLL 0.8
00000,
#MEASURE 4/4
#BPMCHANGE 180
#SCROLL 1
0833,
1110001020201000,
1110101030003000,
1110001020102000,
1110101030003000,
2022200020222000,
#GOGOEND
1330, //68
#MEASURE 3/4
#BPMCHANGE 135
#GOGOSTART
302220,
#BPMCHANGE 145
302220,
#BPMCHANGE 156
302220,
#BPMCHANGE 168
111111,
#BPMCHANGE 180
302220,
#BPMCHANGE 193
302220,
#BPMCHANGE 206
302220,
#MEASURE 6/4
#BPMCHANGE 225
600000000000000000000000000000000000000000000000000000000008
#GOGOEND
#BPMCHANGE 180
000000000000, //76
#MEASURE 4/4
4202,
0000200000020020,
0202,
112,
1202,
0000200000020020,
0202,
500000000000000000000008000000000000000000000000, //84
#MEASURE 3/4
#BPMCHANGE 135
#GOGOSTART
301110,
#BPMCHANGE 145
301110,
#BPMCHANGE 156
301110,
#BPMCHANGE 168
301110,
#BPMCHANGE 180
301110,
#BPMCHANGE 193
301110,
#BPMCHANGE 206
301110,
#BPMCHANGE 222
301110,
#BPMCHANGE 235
301110, //93
#BPMCHANGE 250
333,
333,
333,
333,
#SCROLL 3
6,
#MEASURE 4/4
0,
0,
000000000000000000000000000000000000000000000008, //101
#GOGOEND
#BARLINEOFF
#SCROLL 0.5
0,
0,
0200, //104
#END

COURSE:Normal
LEVEL:6
BALLOON:26,8
SCOREINIT:4300
SCOREDIFF:0
#START
#BARLINEOFF
#MEASURE 1/4
#SCROLL 2
600008000000,
#BARLINEON
#MEASURE 4/4
600000000000000000000000000008000000600000000000,
000000000000000008000000600008000000600008000000,
600000000000000000000000000008000000600000000000,
000000000000000000000008000000000000000000000000, //5
#SCROLL 1
0440,
2222,
20222020,
0,
0440,
2222,
20222020,
0, //13
#GOGOSTART
10010020,
10011010,
10010020,
1012,
10010020,
10011010,
3232,
3330, //21
#GOGOEND
1022,
2201,
10022020,
2211,
1022,
2201,
10022020,
500000000000000000000000000000000000000000000008, //29
00002220,
2201,
#MEASURE 13/16
100010000000
#BPMCHANGE 135
#SCROLL 1.33
0,
#MEASURE 4/4
500000000000000000000000
#BPMCHANGE 180
#SCROLL 1
000000000000000000000008,
00002220,
20200022,
2020000
#SCROLL 0.75
3, //36
#MEASURE 3/4
#BPMCHANGE 135
#SCROLL 1
001,
#BPMCHANGE 145
301,
#BPMCHANGE 156
301,
#BPMCHANGE 168
301,
#BPMCHANGE 180
301,
#BPMCHANGE 193
301,
#BPMCHANGE 206
301,
#BPMCHANGE 225
3, //44
#MEASURE 4/4
#BPMCHANGE 180
3,
2222,
20222020,
0,
7,
0,
0008,
0, //52
#GOGOSTART
10010040,
10011020,
10010040,
1012,
10010040,
10011010,
3232,
3033, //60
#MEASURE 9/8
7000
#BPMCHANGE 225
#SCROLL 0.8
00000
#BPMCHANGE 180
#SCROLL 1
0000
#BPMCHANGE 225
#SCROLL 0.8
00000,
#MEASURE 4/4
#BPMCHANGE 180
#SCROLL 1
8033,
10020010,
10013030,
10020010,
10013030,
1212,
#GOGOEND
1330, //68
#MEASURE 3/4
#BPMCHANGE 135
#GOGOSTART
311,
#BPMCHANGE 145
311,
#BPMCHANGE 156
311,
#BPMCHANGE 168
1,
#BPMCHANGE 180
311,
#BPMCHANGE 193
311,
#BPMCHANGE 206
311,
#MEASURE 6/4
#BPMCHANGE 225
600000000000000000000000000000000000000000000000000000000008
#GOGOEND
#BPMCHANGE 180
000000000000, //76
#MEASURE 4/4
42,
2022,
22,
111,
22,
2022,
22,
500000000000000000000008000000000000000000000000, //84
#MEASURE 3/4
#BPMCHANGE 135
#GOGOSTART
311,
#BPMCHANGE 145
311,
#BPMCHANGE 156
311,
#BPMCHANGE 168
311,
#BPMCHANGE 180
311,
#BPMCHANGE 193
311,
#BPMCHANGE 206
311,
#BPMCHANGE 222
311,
#BPMCHANGE 235
311, //93
#BPMCHANGE 250
5,
0,
0,
000000000000000000000008000000000000,
#SCROLL 2
6,
#MEASURE 4/4
0,
0,
000000000000000000000000000000000000000000000008, //101
#GOGOEND
#BARLINEOFF
#SCROLL 0.5
0,
0,
0200, //104
#END

COURSE:Easy
LEVEL:4
BALLOON:18,4
SCOREINIT:6960
SCOREDIFF:0
#START
#BARLINEOFF
#MEASURE 1/4
#SCROLL 1.5
600008000000,
#BARLINEON
#MEASURE 4/4
600000000000000000000000000008000000600000000000,
000000000000000008000000600008000000600008000000,
600000000000000000000000000008000000600000000000,
000000000000000000000008000000000000000000000000, //5
#SCROLL 1
0440,
11,
1111,
0,
0440,
11,
1111,
0, //13
#GOGOSTART
10010000,
10010010,
10010000,
22,
10010000,
10010010,
33,
3330, //21
#GOGOEND
0011,
1100,
0022,
2200,
0011,
1100,
0022,
500000000000000000000000000000000000000000000008, //29
0011,
1101,
#MEASURE 13/16
100010000000
#BPMCHANGE 135
#SCROLL 1.33
0,
#MEASURE 4/4
500000000000000000000000
#BPMCHANGE 180
#SCROLL 1
000000000000000000000008,
0011,
1101,
1010000
#SCROLL 0.75
3, //36
#MEASURE 3/4
#BPMCHANGE 135
#SCROLL 1
0,
#BPMCHANGE 145
3,
#BPMCHANGE 156
3,
#BPMCHANGE 168
3,
#BPMCHANGE 180
3,
#BPMCHANGE 193
3,
#BPMCHANGE 206
3,
#BPMCHANGE 225
3, //44
#MEASURE 4/4
#BPMCHANGE 180
3,
22,
2222,
0,
7,
0,
0008,
0, //52
#GOGOSTART
10010000,
10010010,
10010000,
22,
10010000,
10010010,
33,
3033, //60
#MEASURE 9/8
7000
#BPMCHANGE 225
#SCROLL 0.8
00000
#BPMCHANGE 180
#SCROLL 1
0000
#BPMCHANGE 225
#SCROLL 0.8
00000,
#MEASURE 4/4
#BPMCHANGE 180
#SCROLL 1
8033,
02,
1033,
02,
1033,
0101,
#GOGOEND
0330, //68
#MEASURE 3/4
#BPMCHANGE 135
#GOGOSTART
3,
#BPMCHANGE 145
3,
#BPMCHANGE 156
3,
#BPMCHANGE 168
1,
#BPMCHANGE 180
3,
#BPMCHANGE 193
3,
#BPMCHANGE 206
3,
#MEASURE 6/4
#BPMCHANGE 225
600000000000000000000000000000000000000000000008000000000000
#GOGOEND
#BPMCHANGE 180
000000000000, //76
#MEASURE 4/4
4,
2022,
22,
1,
22,
2022,
22,
500000000000000000000008000000000000000000000000, //84
#MEASURE 3/4
#BPMCHANGE 135
#GOGOSTART
3,
#BPMCHANGE 145
3,
#BPMCHANGE 156
3,
#BPMCHANGE 168
3,
#BPMCHANGE 180
3,
#BPMCHANGE 193
3,
#BPMCHANGE 206
3,
#BPMCHANGE 222
3,
#BPMCHANGE 235
3, //93
#BPMCHANGE 250
5,
0,
0,
000000000000000000000008000000000000,
#SCROLL 1.5
6,
#MEASURE 4/4
0,
0,
000000000000000000000000000000000000000000000008, //101
#GOGOEND
#BARLINEOFF
#SCROLL 0.5
0,
0,
0200, //104
#END
