//TJADB Project
TITLE:Hajime
TITLEJA:初
SUBTITLE:--Gakuen iDOLM@STER
SUBTITLEJA:「学園アイドルマスター」より
BPM:170
WAVE:Hajime.ogg
OFFSET:-4.978
DEMOSTART:74.827

COURSE:Oni
LEVEL:7
BALLOON:15
SCOREINIT:2390
SCOREDIFF:0
#START
#MEASURE 8/4
#SCROLL 0.5
1000200010020020,
1000200010020020,
#MEASURE 4/4
7,
#SCROLL 1
8033,
3022201022201022,
2010222010201020,
10121211,
0020201120004000, //8
1011102000111020,
2010102000111020,
21120212,
0020102000002022,
11010221,
02010221,
02210221,
01212210, //16
30211022,
10211222,
10211022,
1122,
12210222,
1020201000222020,
10221202,
0020002000111011, //24
1010201010202011,
1010201010202011,
1010201010202022,
12121120,
1000201110102020,
11220122,
1000400040002211,
14040404, //32
30011020,
10011020,
10011020,
10010220,
10011022,
10221010,
10011020,
30030300, //40
10120121,
10120121,
20112211,
20120121,
1111,
10111010,
1011101110111010,
2011, //48
#GOGOSTART
3000201110102022,
1010202000112020,
1010201110102022,
1011102000102000,
500000000000000000000000000000000000000008000000,
1000102210201020,
1022202010222010,
1022102210221000, //56
1000201110200020,
1022102010201020,
1000201110201010,
30033041,
1020102210201020,
1010201110202010,
2010201120102010,
3030300011104000, //64
6,
000000000000000000000000000000000000000000000008,
#GOGOEND
0,
0,
0,
0, //70
#END

COURSE:Hard
LEVEL:5
BALLOON:13
SCOREINIT:3950
SCOREDIFF:0
#START
#MEASURE 8/4
#SCROLL 0.5
11,
11,
#MEASURE 4/4
7,
#SCROLL 1
8033,
6,
000000000000000000000000000000000008000000000000,
10010010,
01003030, //8
11020102,
01020112,
01020202,
02040000,
11010201,
02010111,
02220111,
02202200, //16
30011020,
10011020,
10011020,
1122,
10010220,
11010220,
10220202,
02020000, //24
10211020,
10211020,
10211020,
1122,
10010010,
10220120,
1440,
12020202, //32
30011000,
10011000,
10011000,
10010020,
10011020,
1111,
10011000,
30030300, //40
10120120,
10120120,
2121,
40120120,
1111,
10111010,
500000000000000000000000000000000008000000000000,
4011, //48
#GOGOSTART
30221120,
10220120,
10221122,
10120110,
500000000000000000000000000000000000000000000008,
0011,
10221022,
10212120, //56
10121012,
10101110,
10112010,
30033001,
10121210,
10210111,
20212120,
33303000, //64
6,
000000000000000000000000000000000000000000000008,
#GOGOEND
0,
0,
0,
0, //70
#END

COURSE:Normal
LEVEL:3
BALLOON:8
SCOREINIT:8870
SCOREDIFF:0
#START
#MEASURE 8/4
#SCROLL 0.5
1,
1,
#MEASURE 4/4
7,
#SCROLL 1
8033,
6,
000000000000000000000000000000000000000008000000,
0,
0, //8
10010001,
00010001,
00010001,
0,
10010001,
00010001,
00010001,
0, //16
31,
1,
11,
1110,
1,
1,
20020002,
00020000, //24
11,
10011000,
11,
1110,
10010000,
1,
14,
3, //32
22,
2,
22,
2,
2,
22,
2,
3, //40
10010000,
10010000,
22,
2,
11,
1,
500000000000000000000000000000000008000000000000,
4, //48
#GOGOSTART
12,
10010010,
12,
10010010,
500000000000000000000000000000000000000000000008,
0011,
11,
1222, //56
11,
1122,
10011000,
30033000,
1111,
1001,
1111,
33, //64
6,
000000000000000000000000000000000000000000000008,
#GOGOEND
0,
0,
0,
0, //70
#END

COURSE:Easy
LEVEL:2
BALLOON:6
SCOREINIT:16300
SCOREDIFF:0
#START
#MEASURE 8/4
#SCROLL 0.5
1,
1,
#MEASURE 4/4
7,
#SCROLL 1
83,
6,
000000000000000000000000000000000000000008000000,
0,
0, //8
10000001,
00000001,
00000001,
0,
10000001,
00000001,
00000001,
0, //16
1,
0,
1,
0,
1,
1,
1,
0, //24
1,
1,
1,
1,
1,
0,
1,
0, //32
2,
0,
2,
0,
2,
0,
2,
3, //40
1,
1,
11,
1,
1,
1,
500000000000000000000000000000000000000000000008,
0, //48
#GOGOSTART
11,
1,
11,
1,
500000000000000000000000000000000000000000000008,
01,
11,
1110, //56
1,
11,
1,
33,
1110,
1,
1110,
33, //64
6,
000000000000000000000000000000000000000000000008,
#GOGOEND
0,
0,
0,
0, //70
#END
