//TJADB Project
TITLE:Sync Your World
TITLEJA:Sync Your World
SUBTITLE:--Mifumei/Synchronica
SUBTITLEJA:ミフメイ 「シンクロニカ」より
BPM:155
WAVE:Sync Your World.ogg
OFFSET:-1.520
DEMOSTART:67.965

COURSE:Oni
LEVEL:9
BALLOON:96
SCOREINIT:1140
SCOREDIFF:0
#START
#MEASURE 1/8
0,
#SCROLL 1.12
0,
#SCROLL 1.25
0,
#SCROLL 1.39
0,
#SCROLL 1.55
0,
#SCROLL 1.73
0,
#SCROLL 1.93
0,
#SCROLL 2.16
0,
#SCROLL 2.41
0,
#SCROLL 2.69
0,
#MEASURE 7/4
#SCROLL 3
0, //11
#MEASURE 4/4
#SCROLL 1
100002200000000000200020,
202022102020,
1122,
200100222112,
100002200000000000200020,
202022102020,
122112100212,
111222112211, //19
100112100112,
100112111212,
100112100112,
100112111212,
102112102112,
102112111212,
100020102220100020102220,
1, //27
#BPMCHANGE 175
1000202010002220,
10210212,
1000202010002220,
10221010,
1000202010002220,
10210210,
10221121,
2020101022221111, //35
1010201110201020,
1010201120201020,
2210201010202210,
1020201110201020,
2212201010202022,
1020201010202210,
2212201010202022,
1020202211221210, //43
300222300222,
300222300111,
400111400111,
400112211221,
300221300221,
300221300221,
3010202010102220,
1010202010102022,
1010202010102211,
2010201022112211, //53
#MEASURE 1/8
#SCROLL 2
4,
#MEASURE 1/16
#SCROLL 1
0,
#SCROLL 1.12
0,
#SCROLL 1.25
0,
#SCROLL 1.39
0,
#SCROLL 1.55
0,
#SCROLL 1.73
0,
#SCROLL 1.93
0,
#SCROLL 2.16
0,
#SCROLL 2.41
0,
#SCROLL 2.69
0,
#MEASURE 1/4
#SCROLL 3
0, //65
#MEASURE 4/4
#GOGOSTART
#SCROLL 1
100100100000200000101010200000100100200200100000,
100000200200100000200200100000202020100000200000,
100100100000200000101010200000100100200200100000,
100000200200100000200200100000202020100100200000,
1120102212221020,
1120102212221020,
1122102011221020,
1022112212221222, //73
100100100000200000101010200000100100200200100000,
100000200200100000200200100000202020100000200000,
100100100000200000101010200000100100200200100000,
100000200200100000200200100000202020100100200000,
111100400111,
100000101010400000100100,
100111222111,
211221221100,
300000100100200200101010200000100100200200101010,
200000100100200200101010200000100100200200101010,
221221222121,
1222122211221111, //85
#GOGOEND
202010221010700000000000,
0,
0,
0,
0,
0008,
22,
2000002220000000, //93
1122,
1212,
312222312222,
312222312211,
3010202010102220,
1010202010102022,
1010202010102211,
2010201022112211, //101
#MEASURE 1/8
#SCROLL 2
4,
#MEASURE 1/16
#SCROLL 1
0,
#SCROLL 1.15
0,
#SCROLL 1.32
0,
#SCROLL 1.53
0,
#SCROLL 1.74
0,
#SCROLL 2
0,
#SCROLL 2.3
0,
#SCROLL 2.64
0,
#SCROLL 3.03
0,
#SCROLL 3.48
0,
#MEASURE 1/4
#SCROLL 4
0, //113
#BARLINEOFF
#MEASURE 4/4
#SCROLL 1
100000000011200000
#GOGOSTART
102020,
#BARLINEON
102102122122,
102220100020102020102020,
100020102020102220100020,
111020100011200000102020,
102102122122,
102220100020102020102020,
102220102020102220100020, //121
111020100020102220100020,
112020112020102020100020,
111020102020102220101020,
111020101020102220101020,
302212302212,
302212302212,
300020222020101010202010,
100020201020201010111010,
#GOGOEND
3,
00000233,
0, //132
#END

COURSE:Hard
LEVEL:7
BALLOON:60
SCOREINIT:1840
SCOREDIFF:0
#START
#MEASURE 1/8
0,
#SCROLL 1.12
0,
#SCROLL 1.25
0,
#SCROLL 1.39
0,
#SCROLL 1.55
0,
#SCROLL 1.73
0,
#SCROLL 1.93
0,
#SCROLL 2.16
0,
#SCROLL 2.41
0,
#SCROLL 2.69
0,
#MEASURE 7/4
#SCROLL 3
0, //11
#MEASURE 4/4
#SCROLL 1
100200000202,
222122,
1122,
2121,
100200000202,
222122,
1122,
1212, //19
100111100111,
100111100100,
100111100111,
100111100100,
100111200111,
200111200200,
101011101011,
1, //27
#BPMCHANGE 175
10111020,
10020010,
10111020,
10021010,
10111020,
10020010,
10111120,
22112210, //35
10201121,
01202110,
21201221,
02202110,
21201101,
02011220,
21202201,
02010210, //43
300111100111,
100111100200,
000222200222,
22,
100111100111,
100111100200,
10201122,
10201122,
10201120,
2010201011101110, //53
#MEASURE 1/8
#SCROLL 1.5
4,
#MEASURE 1/16
#SCROLL 1
0,
#SCROLL 1.12
0,
#SCROLL 1.25
0,
#SCROLL 1.39
0,
#SCROLL 1.55
0,
#SCROLL 1.73
0,
#SCROLL 1.93
0,
#SCROLL 2.16
0,
#SCROLL 2.41
0,
#SCROLL 2.69
0,
#MEASURE 1/4
#SCROLL 3
0, //65
#MEASURE 4/4
#GOGOSTART
#SCROLL 1
1010200022202020,
10121210,
1010200022202020,
10121210,
1000201022202000,
1000201022202000,
1010202011102000,
1010202011111000, //73
1010200022202020,
10121210,
1010200022202020,
10121210,
1041,
1141,
100111200111,
200111200200,
34,
34,
111100222200,
1000111011111000, //85
#GOGOEND
222200700000,
0,
0,
0,
0,
0008,
22,
2000002220000000, //93
1122,
1212,
111100111100,
111100111100,
10201122,
10201122,
10201120,
2010201011101110, //101
#MEASURE 1/8
#SCROLL 1.5
4,
#MEASURE 1/16
#SCROLL 1
0,
#SCROLL 1.15
0,
#SCROLL 1.32
0,
#SCROLL 1.53
0,
#SCROLL 1.74
0,
#SCROLL 2
0,
#SCROLL 2.3
0,
#SCROLL 2.64
0,
#SCROLL 3.03
0,
#SCROLL 3.48
0,
#MEASURE 1/4
#SCROLL 4
0, //113
#BARLINEOFF
#MEASURE 4/4
#SCROLL 1
100000200
#GOGOSTART
102,
#BARLINEON
100102102102,
100102102102,
102102102100,
100100200102,
100102102102,
102102102102,
102102102100, //121
100100200101,
102101102101,
102101102101,
102101102100,
300222300222,
300222300222,
300222111100,
300222211100,
#GOGOEND
3,
00000233,
0, //132
#END

COURSE:Normal
LEVEL:6
BALLOON:6,50
SCOREINIT:3410
SCOREDIFF:0
#START
#MEASURE 1/8
0,
#SCROLL 1.12
0,
#SCROLL 1.25
0,
#SCROLL 1.39
0,
#SCROLL 1.55
0,
#SCROLL 1.73
0,
#SCROLL 1.93
0,
#SCROLL 2.16
0,
#SCROLL 2.41
0,
#SCROLL 2.69
0,
#MEASURE 7/4
#SCROLL 3
0, //11
#MEASURE 4/4
#SCROLL 1
1,
22,
1122,
1122,
1,
22,
12,
1122, //19
100001100000,
100001100000,
100001100000,
100001100000,
1111,
2222,
500000000000000000000000000000000000000000000008,
0, //27
#BPMCHANGE 175
1,
10020010,
1,
10020010,
1,
10020010,
1022,
7008, //35
10101001,
01020000,
22002201,
01002000,
22001101,
02010200,
22002201,
02010200, //43
1122,
1122,
0221,
12,
1122,
1122,
500000000000000000000000000000000000000000000008,
0111,
11,
1111, //53
#MEASURE 1/8
#SCROLL 1.5
4,
#MEASURE 1/16
#SCROLL 1
0,
#SCROLL 1.12
0,
#SCROLL 1.25
0,
#SCROLL 1.39
0,
#SCROLL 1.55
0,
#SCROLL 1.73
0,
#SCROLL 1.93
0,
#SCROLL 2.16
0,
#SCROLL 2.41
0,
#SCROLL 2.69
0,
#MEASURE 1/4
#SCROLL 3
0, //65
#MEASURE 4/4
#GOGOSTART
#SCROLL 1
10201110,
1212,
10201110,
1212,
10102220,
10102220,
1215,
000000000000000000000008000000000000000000000000, //73
10201110,
1212,
10201110,
1212,
14,
14,
1022,
2011,
34,
34,
3344,
3344, //85
#GOGOEND
27,
0,
0,
0,
0,
0008,
22,
22, //93
1122,
1122,
34,
34,
10101110,
10101110,
10101110,
1111, //101
#MEASURE 1/8
#SCROLL 1.5
4,
#MEASURE 1/16
#SCROLL 1
0,
#SCROLL 1.15
0,
#SCROLL 1.32
0,
#SCROLL 1.53
0,
#SCROLL 1.74
0,
#SCROLL 2
0,
#SCROLL 2.3
0,
#SCROLL 2.64
0,
#SCROLL 3.03
0,
#SCROLL 3.48
0,
#MEASURE 1/4
#SCROLL 4
0, //113
#BARLINEOFF
#MEASURE 4/4
#SCROLL 1
102
#GOGOSTART
1,
#BARLINEON
100100101100,
100100101100,
100100101100,
1021,
100100101100,
100100101100,
100100101100, //121
1021,
100101101100,
100101101100,
100101101100,
33,
33,
32,
34,
#GOGOEND
3,
00000033,
0, //132
#END

COURSE:Easy
LEVEL:4
BALLOON:4,40
SCOREINIT:5300
SCOREDIFF:0
#START
#MEASURE 1/8
0,
#SCROLL 1.12
0,
#SCROLL 1.25
0,
#SCROLL 1.39
0,
#SCROLL 1.55
0,
#SCROLL 1.73
0,
#SCROLL 1.93
0,
#SCROLL 2.16
0,
#SCROLL 2.41
0,
#SCROLL 2.69
0,
#MEASURE 7/4
#SCROLL 3
0, //11
#MEASURE 4/4
#SCROLL 1
1,
22,
12,
12,
1,
22,
12,
12, //19
11,
11,
11,
11,
1111,
1111,
500000000000000000000000000000000000000000000008,
0, //27
#BPMCHANGE 175
1,
10010010,
0,
10010010,
0,
10010010,
02,
7008, //35
10001001,
02,
10001001,
02,
10001005,
000000000000000000000000000008000000000000000000,
10001005,
000000000000000000000000000008000000000000000000, //43
44,
44,
33,
33,
34,
34,
5,
000000000000000000000008000000000000000000000000,
11,
1111, //53
#MEASURE 1/8
#SCROLL 1.5
4,
#MEASURE 1/16
#SCROLL 1
0,
#SCROLL 1.12
0,
#SCROLL 1.25
0,
#SCROLL 1.39
0,
#SCROLL 1.55
0,
#SCROLL 1.73
0,
#SCROLL 1.93
0,
#SCROLL 2.16
0,
#SCROLL 2.41
0,
#SCROLL 2.69
0,
#MEASURE 1/4
#SCROLL 3
0, //65
#MEASURE 4/4
#GOGOSTART
#SCROLL 1
11,
1212,
11,
1212,
11,
2202,
10010050,
000000000000000000000008000000000000000000000000, //73
11,
1212,
11,
1210,
14,
14,
14,
14,
33,
33,
33,
33, //85
#GOGOEND
07,
0,
0,
0,
0,
0008,
22,
22, //93
1111,
1110,
34,
34,
1110,
1110,
1110,
1111, //101
#MEASURE 1/8
#SCROLL 1.5
4,
#MEASURE 1/16
#SCROLL 1
0,
#SCROLL 1.15
0,
#SCROLL 1.32
0,
#SCROLL 1.53
0,
#SCROLL 1.74
0,
#SCROLL 2
0,
#SCROLL 2.3
0,
#SCROLL 2.64
0,
#SCROLL 3.03
0,
#SCROLL 3.48
0,
#MEASURE 1/4
#SCROLL 4
0, //113
#BARLINEOFF
#MEASURE 4/4
#SCROLL 1
102
#GOGOSTART
0,
#BARLINEON
01,
1110,
1110,
12,
01,
1110,
1110, //121
12,
1111,
1111,
1110,
33,
33,
3,
34,
#GOGOEND
3,
00000003,
0, //132
#END
