//TJADB Project
TITLE:Konya wa Hold Me
TITLEJA:今夜はホーミー
SUBTITLE:--Yoshihito Yano feat. Yurika Hase
BPM:106
WAVE:Konya wa Hold Me.ogg
OFFSET:-2.647
DEMOSTART:86.422

COURSE:Oni
LEVEL:6
SCOREINIT:790
SCOREDIFF:200
#START
000000000000000000000000000000000000000000000000,
000000000000000000000000000000000000000000000000,
100000000000000000000000100000000000000000000000,
100000000000000000001010100000000000100000000000,
100000000000000000001000100000000000200000000000,
100000001000000000001000100000000000200000000000,
100000000000200000001000100000000000200000000000,
100000001000000010000000100000000000200000000000,
100000000000200000001000100000000000200000000000,
100000001000000000001000100000000000200000000000,
100000000000200000000000100000000000000000000000,
100000000000200000000000100000000000000000000000,
100010000000200020002000200010001000200000000000,
100010000000200020002000100010002000200000000000,
100010000000200020002000100020001000200000000000,
100010000000200020002000100020002000100000000000,
100000000000200000001000100000000000000000001000,
100000000000200000001000100000000000200000000000,
100000000000000000000000100000000000000000000000,
100020202000100020202000100020202000100020202000,
#GOGOSTART
100000001000100000000000100000000000200020002000,
100000001000100000000000100000000000200020002000,
100000001000000010001000100000000000200000000000,
100000002000000010001000100000000000400000000000,
100000001000100000000000100000000000200020002000,
100000001000200000000000100000000000200020002000,
100000002000000010001000100000002000200000000000,
100000002000000020002000100000000000300000000000,
#GOGOEND
100010000000000000000000000000000000000030000000,
100010000000000000000000000000003000000000000000,
100010000000000000000000000000000000000030000000,
100010000000000000000000100010000000000000000000,
100000000000200000001000100000000000200000000000,
100000000000200000001000100000000000000000000000,
100000000000000000000000300000003000000030000000,
100010001000200020002000100010001000200020002000,
101010101010202020202020101010101010202020202020,
#GOGOSTART
100000001000100000000000100000000000200020002000,
100000001000100000000000100000000000200020002000,
100000001000000010001000100000000000200000000000,
100000002000000010001000100000000000400000000000,
100000001000100000000000100000000000200020002000,
100000001000200000000000100000000000200020002000,
100000002000000010001000100000002000200000000000,
100000002000000020002000100000000000400000000000,
300000000000200020002000200000000000100010001000,
100000000000200020002000200000000000100010001000,
100000000000200020002000200000000000300000000000,
500000000000000000000000000000000008000000000000,
100000000000202020002000200000000000100010001000,
100020202000100020202000100020202000100020202000,
300000000000000000000000000000000000000000000000,
#GOGOEND
300000000000000010001000100000002000000020000000,
500000000000000000000000000000000008000000000000,
200000000000000000000000000000000000000000000000,
#END

COURSE:Hard
LEVEL:3
SCOREINIT:760
SCOREDIFF:200
#START
000000000000000000000000000000000000000000000000,
000000000000000000000000000000000000000000000000,
100000000000000000000000100000000000000000000000,
100000000000000000001000100000000000100000000000,
100000000000000000001000100000000000200000000000,
100000001000000000001000100000000000000000000000,
100000000000000000001000100000000000200000000000,
100000001000000010001000100000000000000000000000,
100000000000000000001000100000000000200000000000,
100000001000000000001000100000000000000000000000,
100000000000200000000000100000000000000000000000,
100000000000200000000000100000000000000000000000,
100010000000200020002000200000000000000000000000,
100010000000200020002000200000000000000000000000,
100010000000200020002000200000000000000000000000,
100010000000200020002000200000000000200000000000,
100000000000200000001000100000000000000000001000,
100000000000200000001000100000000000000000000000,
100000000000000000000000100000000000000000000000,
100010001000100010001000100000000000300000000000,
#GOGOSTART
100000001000100000000000100000000000200000000000,
100000001000100000000000000000000000000000000000,
100000001000100000000000100000000000200000000000,
100000002000200000002000200000000000400000000000,
100000001000100000000000100000002000200000000000,
100000001000100000000000000000000000000000000000,
100000001000100000000000100000002000200000000000,
100000002000200000002000200000000000300000000000,
#GOGOEND
100010000000000000000000000000000000000030000000,
100010000000000000000000000000003000000000000000,
100010000000000000000000000000000000000030000000,
100010000000000000000000100010000000000000000000,
100000000000200000001000100000000000000000000000,
100000000000200000001000100000000000200000000000,
100000000000000000000000300000003000000030000000,
100010001000100010001000100010001000100000000000,
100010001000100010001000100010001000100000000000,
#GOGOSTART
100000001000100000000000100000000000200000000000,
100000001000100000000000100000000000000000000000,
100000001000100000000000100000000000000000000000,
100000002000200000002000200000000000400000000000,
100000001000100000000000100000002000200000000000,
100000001000200000000000200000000000000000000000,
100000001000100000000000100000002000200000000000,
100000002000200000002000200000000000300000000000,
300000000000500080000000000000000000100010001000,
100000000000500080000000000000000000100010001000,
100000000000500080000000000000000000300000000000,
500000000000000000000800000000000000000000000000,
200000000000500080000000000000000000200020002000,
200000000000500000000000000000008000000000000000,
400000000000500000000000000000008000000000000000,
#GOGOEND
300000000000000010001000100000002000000020000000,
500000000000000000000000000000000800000000000000,
200000000000000000000000000000000000000000000000,
#END

COURSE:Normal
LEVEL:2
SCOREINIT:700
SCOREDIFF:200
#START
000000000000000000000000000000000000000000000000,
000000000000000000000000000000000000000000000000,
100000000000000000000000100000000000000000000000,
100000000000000000000000100000000000100000000000,
100000000000000000001000100000000000200000000000,
100000000000000000001000100000000000000000000000,
100000000000000000001000100000000000200000000000,
100000000000000000001000100000000000000000000000,
100000000000000000001000100000000000200000000000,
100000000000000000001000100000000000000000000000,
100000000000000000000000100000000000100000000000,
100000000000000000000000100000000000100000000000,
100000000000200020002000200000000000000000000000,
100000000000200020002000200000000000000000000000,
100000000000200020002000200000000000000000000000,
100000000000200020002000200000000000000000000000,
100000000000000000001000100000000000000000001000,
100000000000000000001000100000000000000000000000,
100000000000100000000000100000000000100000000000,
300000000000300000000000300000000000300000000000,
#GOGOSTART
100000001000100000000000100000000000000000000000,
100000001000100000000000100000000000000000000000,
100000001000100000000000100000000000000000000000,
100000002000200000000000200000000000000000000000,
100000001000100000000000200000000000000000000000,
100000001000100000000000200000000000000000000000,
100000001000100000000000200000000000000000000000,
100000002000200000000000200000000000000000000000,
#GOGOEND
100010000000000000000000000000000000000010000000,
100010000000000000000000000000001000000000000000,
100010000000000000000000000000000000000010000000,
100010000000000000000000100010000000000000000000,
100000000000000000001000100000000000000000000000,
100000000000000000002000200000000000000000000000,
100000000000000000000000100000001000000010000000,
500000000000000000000000000000000800000000000000,
600000000000000000000000000000000800000000000000,
#GOGOSTART
100000001000100000000000100000000000000000000000,
100000001000100000000000100000000000000000000000,
100000001000100000000000100000000000000000000000,
100000002000200000000000200000000000000000000000,
100000001000100000000000200000000000000000000000,
100000001000100000000000200000000000000000000000,
100000001000100000000000200000000000000000000000,
100000002000200000000000200000000000000000000000,
300000000000300000000000000000000000000000000000,
300000000000300000000000000000000000000000000000,
300000000000300000000000000000000000300000000000,
500000000000000000000800000000000000000000000000,
300000000000500000000800000000000000000000000000,
300000000000500000000000000000000800000000000000,
300000000000500000000000000000000800000000000000,
#GOGOEND
300000000000000000000000300000000000000000000000,
500000000000000000000000000000000800000000000000,
200000000000000000000000000000000000000000000000,
#END

COURSE:Easy
LEVEL:3
SCOREINIT:620
SCOREDIFF:230
#START
000000000000000000000000000000000000000000000000,
000000000000000000000000000000000000000000000000,
100000000000000000000000000000000000000000000000,
100000000000000000000000100000000000000000000000,
100000000000000000001000100000000000000000000000,
100000000000000000000000200000000000000000000000,
100000000000000000001000100000000000000000000000,
100000000000000000000000200000000000000000000000,
100000000000000000001000100000000000000000000000,
100000000000000000000000200000000000000000000000,
100000000000000000000000000000000000000000000000,
100000000000000000000000000000000000000000000000,
100000000000000000002000200000000000000000000000,
100000000000000000002000200000000000000000000000,
100000000000000000002000200000000000000000000000,
100000000000000000002000200000000000000000000000,
100000000000000000001000100000000000000000000000,
100000000000000000001000100000000000000000000000,
100000000000000000000000100000000000000000000000,
300000000000300000000000300000000000000000000000,
#GOGOSTART
100000001000100000000000000000000000000000000000,
100000001000100000000000000000000000000000000000,
100000001000100000000000000000000000000000000000,
100000000000100000000000100000000000000000000000,
100000001000100000000000000000000000000000000000,
100000001000100000000000000000000000000000000000,
100000001000100000000000000000000000000000000000,
200000000000200000000000200000000000000000000000,
#GOGOEND
100010000000000000000000000000000000000000000000,
100010000000000000000000000000000000000000000000,
100010000000000000000000000000000000000000000000,
100010000000000000000000100010000000000000000000,
100000000000000000000000200000000000000000000000,
100000000000000000000000200000000000000000000000,
100000000000000000000000100000000000100000000000,
500000000000000000000000000000000800000000000000,
600000000000000000000000000000000800000000000000,
#GOGOSTART
100000001000100000000000000000000000000000000000,
100000001000100000000000000000000000000000000000,
100000001000100000000000000000000000000000000000,
100000000000100000000000100000000000000000000000,
200000002000200000000000000000000000000000000000,
200000002000200000000000000000000000000000000000,
200000002000200000000000000000000000000000000000,
200000000000200000000000200000000000000000000000,
300000000000300000000000000000000000000000000000,
300000000000300000000000000000000000000000000000,
300000000000300000000000000000000000300000000000,
500000000000000000000800000000000000000000000000,
400000000000400000000000000000000000000000000000,
400000000000400000000000000000000000000000000000,
400000000000400000000000000000000000000000000000,
#GOGOEND
300000000000000000000000300000000000000000000000,
500000000000000000000000000000000800000000000000,
200000000000000000000000000000000000000000000000,
#END
