//TJADB Project
TITLE:CRaZY
TITLEJA:CR詠ZY
SUBTITLE:--UMITORA / Vivid BAD SQUAD × Megurine Luka / Project Sekai: Colorful Stage feat. Hatsune Miku
SUBTITLEJA:Vivid BAD SQUAD × 巡音ルカ 「プロジェクトセカイ カラフルステージ! feat. 初音ミク」
BPM:122
WAVE:CRaZY.ogg
OFFSET:-1.020
DEMOSTART:63.960

COURSE:Oni
LEVEL:8
BALLOON:3
SCOREINIT:2080
SCOREDIFF:0
#START
2022202202202222,
2022202202202222,
2022202202202222,
00000780,
1011101121101111,
1011101202202111,
1011101121101111,
1011101202202120,
3433,
3433,
3000202202202222,
1012202202201122, //12
1120122011020110,
1120122012020210,
1120122101020110,
1101002211012220,
1010222012020110,
1021111221111040,
1020102211012020,
1101002011010020,
2202002022202020,
2220202202202022,
1220002212200000,
500000000000000000000000000000000008000000000000, //24
#GOGOSTART
3000
#GOGOEND
221110102000,
#GOGOSTART
30
#GOGOEND
221120,
#GOGOSTART
3000
#GOGOEND
201110101110,
2202201101100000,
#GOGOSTART
3000
#GOGOEND
221110102000,
#GOGOSTART
3000
#GOGOEND
201110102000,
#GOGOSTART
3000
#GOGOEND
221110201020,
500000000000000000000000000000000000000008000000, //32
#GOGOSTART
1100220011212000,
1121120202212200,
1100220011201020,
1202112212111020,
1100220011212000,
1121120210212200,
1121120012212200,
#GOGOEND
1221220000000020,
#GOGOSTART
1100220011212000,
1121120012212200,
1100220011201020,
3020302030221212,
1100220011212000,
1121120212212200,
1121120212212200,
#GOGOEND
1121120212212200,
2022202202202222,
2022202202202222,
0,
0, //52
#END

COURSE:Hard
LEVEL:6
BALLOON:2
SCOREINIT:3020
SCOREDIFF:0
#START
2020202202202000,
2020202202202000,
2020202202202000,
00000780,
1010101101101000,
1010101101102000,
1010101101101000,
1010101101102000,
3433,
3433,
3000202202202000,
1010102202202000, //12
1010102011010000,
1010102022020000,
1010102011010000,
1101000011010000,
1010202011010000,
1001101011101000,
1020102011010000,
1101000011010000,
2202002022202000,
2020202002202000,
2220000022200000,
500000000000000000000000000000000008000000000000, //24
#GOGOSTART
3000
#GOGOEND
222010102000,
#GOGOSTART
30
#GOGOEND
221120,
#GOGOSTART
30
#GOGOEND
221122,
2202201101100000,
#GOGOSTART
3000
#GOGOEND
222010102000,
#GOGOSTART
30
#GOGOEND
221120,
#GOGOSTART
3000
#GOGOEND
222010201020,
500000000000000000000000000000000000000008000000, //32
#GOGOSTART
1100220011002000,
1110100202202000,
1100220010201020,
100200000500000000000008000000000000000000000000,
1100220011002000,
1110100220202000,
1110100022202000,
#GOGOEND
4,
#GOGOSTART
1100220011002000,
1110100022202000,
1100220010201020,
32323000,
1100220011002000,
1110100220202000,
1110100022202000,
#GOGOEND
1010110110102000,
2020202202202000,
2020202202202022,
0,
0, //52
#END

COURSE:Normal
LEVEL:4
BALLOON:
SCOREINIT:5360
SCOREDIFF:0
#START
2202,
2202,
2202,
00000330,
1012,
1002,
1012,
1011,
3433,
3433,
30200220,
1, //12
11101000,
11102000,
11101000,
500000000000000000000000000000000008000000000000,
11101000,
11101010,
2210,
1001000010010000,
2002000020002000,
22200220,
22002200,
500000000000000000000000000000000008000000000000, //24
#GOGOSTART
30
#GOGOEND
222020,
#GOGOSTART
30
#GOGOEND
222020,
#GOGOSTART
30
#GOGOEND
202220,
2002001001000000,
#GOGOSTART
30
#GOGOEND
222020,
#GOGOSTART
30
#GOGOEND
222020,
#GOGOSTART
30
#GOGOEND
202220,
500000000000000000000000000000000000000008000000, //32
#GOGOSTART
1212,
11102220,
1212,
500000000000000000000008000000000000000000000000,
1212,
11102220,
11102220,
#GOGOEND
4,
#GOGOSTART
1212,
11102220,
1212,
33304000,
1212,
11102220,
11102220,
#GOGOEND
1111,
2202,
20200022,
0,
0, //52
#END

COURSE:Easy
LEVEL:4
BALLOON:
SCOREINIT:9670
SCOREDIFF:0
#START
2200,
2200,
2200,
0,
11,
1,
11,
1,
3333,
3333,
3,
0, //12
1100,
1100,
1100,
500000000000000000000000000008000000000000000000,
1110,
1110,
1100,
11,
2,
2,
22,
500000000000000000000000000008000000000000000000, //24
#GOGOSTART
3
#GOGOEND
010,
#GOGOSTART
3
#GOGOEND
010,
#GOGOSTART
3
#GOGOEND
010,
500000000000000000000000000008000000000000000000,
#GOGOSTART
3
#GOGOEND
010,
#GOGOSTART
3
#GOGOEND
010,
#GOGOSTART
3
#GOGOEND
010,
500000000000000000000000000008000000000000000000, //32
#GOGOSTART
1111,
12,
1111,
500000000000000000000008000000000000000000000000,
1111,
12,
1111,
#GOGOEND
3,
#GOGOSTART
1111,
12,
1111,
3330,
1111,
12,
1111,
#GOGOEND
31,
2200,
2200,
0,
0, //52
#END
