//TJADB Project
TITLE:Aria
TITLEJA:Aria
SUBTITLE:--Nanatsukaze from "Cosmic Radio 2025"
SUBTITLEJA:Nanatsukaze from "Cosmic Radio 2025"
BPM:180
WAVE:Aria.ogg
OFFSET:-2.365
DEMOSTART:123.369

COURSE:Oni
LEVEL:9
BALLOON:
SCOREINIT:1210
SCOREDIFF:0
#START
0,
0,
0,
0,
0,
0,
0, //7
10022022,
10022220,
10220202,
1201,
10220022,
10002202,
10002222,
10201202,
10012210,
12022020,
10012010,
10221110,
10012210,
12022020,
10012022,
#BPMCHANGE 181.76
10221110, //23
#BPMCHANGE 180
10202012,
12202222,
10222021,
22102210,
10202022,
12202122,
10211221,
1022201020202011,
1000102210001000,
1000102210201000,
1000102210201000,
1022102010221020,
11111111,
11111111,
1111111111111111,
1, //39
#GOGOSTART
1000222210102010,
000000200200100000100000200000000000500000000008,
0022202010102010,
0021202010002010,
1022202010202020,
0011102000202011,
100000000000100000500000000008000000200000100100,
1010201020102211,
1000222210102010,
000000200200100000100000200000000000500000000008,
0022202010102010,
0021202010002011,
1022202010202020,
0011101020102050,
000000000000000000000000000000000008000000100000,
2222102010121020, //55
#GOGOEND
#BPMCHANGE 178
10002002,
#BPMCHANGE 180
10202222,
10022002,
10202210,
10002002,
12202222,
10022022,
#BPMCHANGE 182.15
10021222,
#BPMCHANGE 180
10112020,
10211210,
10121010,
12112122,
10121010,
10121022,
10121012,
1000202020102022, //71
11111111,
11111111,
1111111111111111,
10012212,
1111111110202011,
1111111110202011,
1111211121112121,
2212121211104000, //79
#GOGOSTART
1112201210112010,
1122101210122020,
1221101210122020,
2211101122102122,
1010222210112010,
200200200200100000100100200000100000500008000000,
1022202011121020,
1021202210102012,
1021202011222010,
2022102212225000,
000000000000000000000000000000000008000000200000,
1012101022112211,
1001202220102022,
1021202220102222,
1001202220102022,
1021202220102211, //95
1001202220102022,
1021202220102222,
1001202220102022,
2222122212221211,
1001202220102022,
1021202220102222,
1001202220102022,
1021202220102211,
1001202220102022,
1021202222112222,
1222122212121222,
1112111212121122,
#GOGOEND
#BPMCHANGE 177.45
12220000,
#BPMCHANGE 180
12220200,
12220000,
0,
0, //112
#END

COURSE:Hard
LEVEL:7
BALLOON:35
SCOREINIT:1890
SCOREDIFF:0
#START
0,
0,
0,
0,
0,
0,
0, //7
10022020,
10022020,
10020201,
1201,
10020022,
10002200,
10002220,
10201202,
10010010,
10002202,
10010010,
10002220,
10010010,
10002202,
10010010,
#BPMCHANGE 181.76
10001110, //23
#BPMCHANGE 180
10002001,
20202102,
10011001,
11102110,
10002002,
11101021,
10011222,
0000001020202011,
10121010,
10121210,
100000000000100000500000000000000000000000000008,
00001212,
11101110,
11111111,
1110111011101111,
1, //39
#GOGOSTART
10221121,
02102010,
0022202010102010,
01102021,
0022202010202020,
01020221,
10120122,
1010002000102011,
10221121,
02102010,
0022202010102010,
01102021,
0022202010202020,
0011100020002050,
000000000000000000000000000008000000000000200000,
1010202010111010, //55
#GOGOEND
#BPMCHANGE 178
20002002,
#BPMCHANGE 180
20202222,
10022002,
20202220,
10002002,
12202220,
10022021,
#BPMCHANGE 182.15
00021222,
#BPMCHANGE 180
10112020,
10211210,
10150000,
000000000008000000000000200000200000200000200000,
1111,
10121022,
100000000000500000000000000000000000000000000008,
00222022, //71
11101110,
11111111,
1110111011101111,
1,
7,
0,
0,
80001140, //79
#GOGOSTART
1000201000111010,
01201121,
10210122,
1010201020102011,
10221121,
02112010,
1022202010102010,
0011101020002010,
0022202010202020,
01102025,
000000000000000000000000000008000000000000200000,
1010101020102011,
10120201,
0020100010102011,
11210202,
1020102010102011, //95
11012021,
01202022,
11210121,
0020100020002011,
10120121,
0020100020002011,
11210202,
1020102010102011,
11210212,
0020001110201020,
10150000,
000000000000000000000008000000000000000000000000,
#GOGOEND
#BPMCHANGE 177.45
22220000,
#BPMCHANGE 180
22220200,
22220000,
0,
0, //112
#END

COURSE:Normal
LEVEL:5
BALLOON:24
SCOREINIT:2890
SCOREDIFF:0
#START
0,
0,
0,
0,
0,
0,
0, //7
1,
2,
2,
2,
1,
2,
2,
2,
10010010,
02,
10010010,
02,
10010010,
02,
10010010,
#BPMCHANGE 181.76
0011, //23
#BPMCHANGE 180
10002001,
10202201,
10011001,
10101110,
10002002,
2112,
10011022,
00002220,
10011020,
20220200,
100000000000100000500000000000000000000000000008,
0022,
100000000000100000500000000000000000000000000008,
00022020,
10101110,
3, //39
#GOGOSTART
10201111,
01102010,
02201022,
01102022,
01101111,
01020220,
10110001,
11010120,
20201111,
01102010,
02201022,
01102022,
01101022,
01102025,
000000000000000000000000000008000000000000200000,
20101110, //55
#GOGOEND
#BPMCHANGE 178
10002002,
#BPMCHANGE 180
2222,
12,
2211,
10002002,
2222,
20022011,
#BPMCHANGE 182.15
00022020,
#BPMCHANGE 180
10011020,
20220200,
100000000000100000500000000000000000000000000008,
0022,
100000000000100000500000000000000000000000000008,
00011022,
000000000000500000000000000000000000000000000008,
00111020, //71
1110,
1110,
10101110,
3,
7,
0,
0,
8, //79
#GOGOSTART
10220111,
02200111,
10200222,
01020222,
10201111,
02201020,
02201122,
01102022,
01101122,
01002025,
000000000000000000000000000008000000000000100000,
11110220,
10110101,
02200010,
10220201,
00011111, //95
01011022,
01100011,
10220221,
00101011,
10220101,
01100010,
10220201,
00011111,
02220111,
00011022,
10150000,
000000000000000000000008000000000000000000000000,
#GOGOEND
#BPMCHANGE 177.45
2,
#BPMCHANGE 180
2,
2,
0,
0, //112
#END

COURSE:Easy
LEVEL:3
BALLOON:20
SCOREINIT:5600
SCOREDIFF:0
#START
0,
0,
0,
0,
0,
0,
0, //7
1,
0,
1,
0,
1,
0,
1,
0,
2002,
0,
2002,
0,
2002,
0,
2002,
#BPMCHANGE 181.76
0, //23
#BPMCHANGE 180
1,
1,
1,
1,
1,
1,
1,
1,
1110,
11,
1110,
11,
11,
11,
1111,
1, //39
#GOGOSTART
1102,
0101,
0101,
0111,
0102,
0101,
0101,
0111,
0102,
0101,
0101,
0111,
0102,
0102,
0101,
0111, //55
#GOGOEND
#BPMCHANGE 178
2,
#BPMCHANGE 180
2,
2,
2,
2,
2,
2,
#BPMCHANGE 182.15
2,
#BPMCHANGE 180
1110,
11,
1110,
11,
1110,
1110,
1110,
12, //71
11,
11,
1111,
1,
7,
0,
0,
8, //79
#GOGOSTART
1102,
0101,
0101,
0111,
0102,
0101,
0101,
0111,
0102,
0101,
0101,
0111,
12,
1101,
12,
1011, //95
12,
11,
1110,
2001,
12,
1101,
12,
1011,
12,
11,
5,
000000000000000000000008000000000000000000000000,
#GOGOEND
#BPMCHANGE 177.45
2,
#BPMCHANGE 180
2,
2,
0,
0, //112
#END
