//TJADB Project
TITLE:YOU're our HEROES
TITLEJA:YOU're our HEROES
SUBTITLE:--for all DONDERS
SUBTITLEJA:for all DONDERS
BPM:247.14
WAVE:YOUre our HEROES.ogg
OFFSET:-1.655
DEMOSTART:113.581

COURSE:Oni
LEVEL:10
BALLOON:3,93
SCOREINIT:1000
SCOREDIFF:0
#START
1110101000100020,
0011100020001000,
1110101000100020,
0011100020201000,
1110101000100020,
0011100020001000,
1110101000100020,
0011200022222000, //8
1110101000100020,
0011102020001000,
1110101000100020,
0011101022201000,
1110101000100020,
0011102020001000,
1110102000200030,
0011100022202000, //16
#MEASURE 7/8
11101020002000,
10001020002220,
11101020002000,
10001022202000,
11101020102000,
10001020002220,
11101020102000,
10001022202000, //24
11101020201000,
10001020002220,
11101020201000,
10001022202000,
11101020202000,
10001020002220,
11101020202000,
10001022112211, //32
1021012,
10001120102000,
500000000000000000000000000000000000000008,
00000020002011,
1011011,
20221020102000,
500000000000000000000000000000000000000008,
0002121, //40
20001110101000,
10001110001022,
20002220002020,
2023030,
30001110111000,
11101020111010,
1022222,
2004000, //48
30222210222210,
22221022103000,
#MEASURE 4/4
1010202000112010,
1000111000102020,
2000222000202020,
20111110,
1110202020002020,
20120102,
34,
1122,
#MEASURE 7/8
#BPMCHANGE 216.25
#SCROLL 1.14
1111222,
11112221111222, //60
#MEASURE 4/4
#BPMCHANGE 247.14
#SCROLL 1
3,
2,
0,
2,
0,
2,
22,
20000004, //68
0022,
40000004,
0022,
40000004,
0022,
#GOGOSTART
40002220,
44,
40004440,
#GOGOEND
#MEASURE 7/8
10222010001000,
10002210002121,
2011010,
#MEASURE 4/4
22202010201020
#GOGOSTART
30, //80
0010201121112111,
21112111
#GOGOEND
202000
#GOGOSTART
30,
0010201120102011,
1010200022202030,
0010201120102011,
1010200022102020,
30332323,
300000300000600000000000000008000000000000100100, //88
1010201020102011,
1010200022202011,
1010201020102011,
1010200022202011,
1010201020102011,
1010200022102020,
30332323,
23600000,
#MEASURE 7/8
000000000008000000000000000000000000
#GOGOEND
100000, //97
#MEASURE 4/4
000100200100110000200200,
100100220000200100000100,
0010222011102000,
1120102210200012,
1210201020001210,
21201122,
1010202011221122,
1122100020201010,
0010201110102000,
1010100022200010,
0010201110102000,
1010100022202020, //109
#GOGOSTART
32212212,
21021122,
70801113,
0011105000000000,
000000000000000000000008000000000000200000400000,
04440001,
01221121,
0022202010201000, //117
1122221122221122,
2211222211221122,
100100200200100100100100200020001000200020001000,
#GOGOEND
300000000221100200000
#GOGOSTART
300,
0011201022102010,
2011201022102030,
0011201022102211,
2011201122102030, //125
000000100100200000200000500008000000200000100000,
0011202010102020,
1110201000112010,
03034040,
#GOGOEND
122122,
101010102200,
1020001000211000,
#MEASURE 7/8
200100100000101010100000200200200200200200, //133
#GOGOSTART
10001110001000,
20001022202020,
10001110001000,
20001022201222,
10001110001000,
20001022202020,
10001110001000,
20001022201222, //141
10001120101000,
20001022201022,
10001120101000,
20001022201222,
10001120101000,
20001022201022,
10001120101000,
20001022201222,
#GOGOEND
10001120112010,
10221022102020, //151
100022
#GOGOSTART
70000000,
0,
0,
0,
0,
0,
0,
0,
#GOGOEND
8,
0,
0, //162
#END

COURSE:Hard
LEVEL:7
BALLOON:59
SCOREINIT:1550
SCOREDIFF:0
#START
10110102,
01102010,
10110102,
01102010,
10110102,
01102010,
10110102,
01102220, //8
10110102,
01102010,
10110102,
01102220,
10110102,
01102010,
10120203,
01102220, //16
#MEASURE 7/8
1012020,
1012020,
1012020,
1012220,
1012020,
1012020,
1012020,
1012220, //24
1012020,
1012020,
1012020,
1012220,
1012020,
1012020,
1012020,
1012220, //32
1011010,
1012120,
500000000000000000000000000000000000000008,
0002020,
1011010,
2012010,
500000000000000000000000000000000000000008,
0001111, //40
1011010,
1011010,
2022020,
2023030,
3011110,
1112201,
500000000000000000000000000000000000000008,
0004000,//48
3002211,
2011220,
#MEASURE 4/4
10220010,
1000111000100000,
2000222000200000,
2111,
1222,
20120102,
34,
1122,
#MEASURE 7/8
#BPMCHANGE 216.25
#SCROLL 1.14
1111222,
500000000000000000000000000000000008000000, //60
#MEASURE 4/4
#BPMCHANGE 247.14
#SCROLL 1
3,
2,
0,
2,
0,
2,
22,
20000004, //68
02,
40000004,
02,
40000004,
02,
#GOGOSTART
40002220,
44,
40004440,
#GOGOEND
#MEASURE 7/8
1001010,
10001110002000,
2011020,
#MEASURE 4/4
2021220
#GOGOSTART
3, //80
01111111,
10101110
#GOGOEND
202000
#GOGOSTART
30,
01111010,
11102003,
01111010,
11102220,
30332323,
300000300000600000000000000008000000000000100000, //88
11211010,
11102001,
11211010,
11102001,
11211010,
11102220,
30332323,
23600000,
#MEASURE 7/8
000000000008000000000000000000000000
#GOGOEND
100000, //97
#MEASURE 4/4
01101020,
10102101,
01221120,
10201201,
21212012,
12101122,
1000111010002220,
20102201,
01211010,
11102201,
01211010,
11102220, //109
#GOGOSTART
30030030,
03003030,
30001113,
01150000,
000000000000000000000008000000000000000000400000,
00000001,
01101111,
02201010, //117
1000111000111000,
1110001110001030,
000100111100,
#GOGOEND
3002020
#GOGOSTART
3,
01212121,
10212123,
01212121,
10212123, //125
02221001,
02221010,
10210106,
000000000008000000000000400000000000400000000000,
#GOGOEND
1212,
111100,
100000000500000000080000,
#MEASURE 7/8
20002220002000, //133
#GOGOSTART
1012020,
1012020,
1012020,
1012220,
1012020,
1012020,
1012020,
1012220, //141
1011220,
1012020,
1011220,
10001020002220,
1011220,
1012020,
1011220,
10001020002220,
#GOGOEND
1021210,
1012121, //151
100
#GOGOSTART
7000,
0,
0,
0,
0,
0,
0,
0,
#GOGOEND
8,
0,
0, //162
#END

COURSE:Normal
LEVEL:6
BALLOON:16,39
SCOREINIT:2360
SCOREDIFF:0
#START
10010101,
0120,
10010101,
0120,
10010101,
0120,
10010101,
0122,//8
10010102,
0120,
10010102,
0120,
10010102,
0120,
10020204,
0220, //16
#MEASURE 7/8
1002020,
1002020,
1002020,
1001010,
1002020,
1002020,
1002020,
1001010, //24
1002020,
1002020,
1002020,
1001010,
1002020,
1002020,
1002020,
1001010, //32
1001010,
1001110,
500000000000000000000000000000000000000008,
0,
1001010,
2002020,
500000000000000000000000000000000000000008,
0001010, //40
1001010,
1001010,
2002020,
2003030,
3010110,
1010200,
500000000000000000000000000000000000000008,
0004000,//48
3001111,
1011110,
#MEASURE 4/4
1001,
10110100,
20220200,
2111,
1022,
20010100,
34,
1122,
#MEASURE 7/8
#BPMCHANGE 216.25
#SCROLL 1.14
1111111,
500000000000000000000000000000000008000000, //60
#MEASURE 4/4
#BPMCHANGE 247.14
#SCROLL 1
3,
2,
0,
2,
0,
2,
22,
20000004, //68
02,
40000004,
02,
40000004,
02,
#GOGOSTART
4,
4,
44,
#GOGOEND
#MEASURE 7/8
9,
0,
0900,
#MEASURE 4/4
8000000
#GOGOSTART
3, //80
0111,
1110
#GOGOEND
000
#GOGOSTART
3,
0111,
11100003,
0111,
11101010,
6,
000000000000000000000000000008000000000000100000, //88
01101010,
22200001,
01101010,
22200001,
01101010,
22202020,
6,
0,
#MEASURE 7/8
000000000008000000000000000000000000
#GOGOEND
100000, //97
#MEASURE 4/4
01101000,
10102001,
01102020,
10200001,
02102010,
2120,
10112010,
11202001,
01101010,
10102001,
01101010,
1120, //109
#GOGOSTART
30030030,
03003030,
30001113,
01050000,
000000000000000000000008000000000000000000400000,
00000001,
01101011,
01101010, //117
30030030,
03003006,
000000000000000000000000000008000000000000000000,
#GOGOEND
3000000
#GOGOSTART
3,
0111,
10101103,
0111,
10101103, //125
00201001,
0210,
10010106,
000000000008000000000000200000000000000000000000,
#GOGOEND
11,
1011,
100000000500000000080000,
#MEASURE 7/8
2022020, //133
#GOGOSTART
1002020,
1002020,
1002020,
1002220,
1002020,
1002020,
1002020,
1002220, //141
1002020,
1002020,
1002020,
1002220,
1002020,
1002020,
1002020,
1002220,
#GOGOEND
1022220,
1011110, //151
100
#GOGOSTART
7000,
0,
0,
0,
0,
0,
0,
0,
#GOGOEND
8,
0,
0, //162
#END

COURSE:Easy
LEVEL:5
BALLOON:13,29
SCOREINIT:4070
SCOREDIFF:0
#START
10000001,
02,
10000001,
02,
10000001,
02,
10000001,
02, //8
10000002,
02,
10000002,
02,
10000002,
02,
10000004,
04, //16
#MEASURE 7/8
1,
1002000,
1,
1002000,
1,
1002000,
1,
1002000, //24
1,
1002000,
1,
1002000,
1,
1002000,
1,
1002000, //32
1001000,
1001000,
500000000000000000000000000000000000000008,
0,
1001000,
2002000,
500000000000000000000000000000000000000008,
0, //40
1001000,
1001000,
2002000,
2003030,
3000100,
1000200,
500000000000000000000000000000000000000008,
0004000,//48
6,
000000000000000000000008000000000000000000,
#MEASURE 4/4
1,
10010000,
20020000,
2,
12,
12,
34,
1122,
#MEASURE 7/8
#BPMCHANGE 216.25
#SCROLL 1.14
5,
000000000000000000000000000008000000000000, //60
#MEASURE 4/4
#BPMCHANGE 247.14
#SCROLL 1
3,
2,
0,
2,
0,
2,
22,
20000004, //68
0,
40000004,
0,
40000004,
0,
#GOGOSTART
4,
4,
44,
#GOGOEND
#MEASURE 7/8
9,
0,
0900,
#MEASURE 4/4
8000000
#GOGOSTART
3, //80
0111,
1010
#GOGOEND
000
#GOGOSTART
3,
0111,
10100003,
0111,
1100,
6,
000000000000000000000008000000000000000000100000, //88
0111,
20200001,
0111,
20200001,
0111,
2200,
6,
0,
#MEASURE 7/8
000000000008000000000000000000000000
#GOGOEND
100000, //97
#MEASURE 4/4
01,
10100001,
0120,
20200001,
0220,
2200,
1122,
10102001,
0110,
10100001,
0110,
1100, //109
#GOGOSTART
30030030,
03003030,
30005000,
0,
000000000000000000000008000000000000000000400000,
00000001,
00101001,
0110, //117
30030030,
03003006,
000000000000000000000000000008000000000000000000,
#GOGOEND
3000000
#GOGOSTART
3,
0111,
10101003,
0111,
10101003, //125
00101001,
0110,
6,
000000000008000000000000000000000000000000000000,
#GOGOEND
1,
11,
1,
#MEASURE 7/8
4, //133
#GOGOSTART
1,
1002000,
1,
1002000,
1,
1002000,
1,
1002000, //141
1,
1002000,
1,
1002000,
1,
1002000,
1,
1002000,
#GOGOEND
1002000,
1002020, //151
000
#GOGOSTART
7000,
0,
0,
0,
0,
0,
0,
0,
#GOGOEND
8,
0,
0, //162
#END
