//TJADB Project
TITLE:Dimpy Dimper!
TITLEJA:でぃんぴーでぃんぱー!
SUBTITLE:--Omiko Sisters feat. EDOGA-SULLIVAN / WADIVE RECORD
SUBTITLEJA:オミコシスターズ feat. エドガー・サリヴァン / WADIVE RECORD
BPM:131
WAVE:Dimpy Dimper.ogg
OFFSET:-2.282
DEMOSTART:24.905 //shinuchi:
8760/4340/2910/1930

COURSE:Oni
LEVEL:9
BALLOON:34,17
SCOREINIT:670,2090
SCOREDIFF:173
#START
100001200200000100200000,
100001200200000100200000,
100001200200000100200200,
1000200020120210,
100001200200001100201000,
100001200200001100202100,
300001200200001100200200,
500000000000000000000000000000000008000000000000,
100002100200102200100200,
100000000020100000200000100020200000100000200200,
11111111,
100100100100100100100100100100100100101010101010,
2004, //13
#GOGOSTART
100000200000100000200000300000000400000000000020,
200000200000200100000000100000000020100020200000,
100000200000100020200000100000000200000000000010,
100000100000200100000000100020200000100000200000,
1020102030040002,
100000100000200100000020200000100000200200000200,
1010210020001222,
000000300000200200000020100010200020100010200000, //21
#GOGOEND
7,
08,
100000000020100000200000100000000100000000200000,
1001002010010050,
000000000000000000000000000000000008000000000000,
3003004004003003,
0040040030040040,
100100000200100000100100000000000010200000100000, //29
1202,
1002201021002020,
1202,
1002201021002020,
1202,
100000000200200000100000200010200000200200000000,
1202,
102202100100102202102202,
1,
200000000100200000100000100010001000200000000000, //39
10001000300
#GOGOSTART
40002,
200000200000200100000000100000000020100020200000,
100000200000100020200000100000000200000000000100,
100000100000200100000000100020200000100000200020,
1020102030040002,
1010210020102202,
1010210020001222,
000000300000200200000020100010200020100010200000, //47
1020102030040002,
200000200000200100000020100000200020100020200000,
100000200000100020200000100000000200000000000100,
100000100000200100000020200010100010200000200000,
1020102030040002,
100000100000200100000020200000100000200010200020,
100000100000200100000000200010200020100000200100,
000300202202102202102200, //55
#GOGOEND
7,
800000000102200102200200,
100000200000100020200020100000200500000008000000,
100100200100200100202202,
100000200000100020200020100000200100000000200020,
100000100000200100000000100000200020100020200000,
102202102202111111200200,
#GOGOSTART
1103002204000000,
#GOGOEND
0,
0, //65
#END

COURSE:Hard
LEVEL:6
BALLOON:26,15
SCOREINIT:730,3240
SCOREDIFF:203
#START
10200220,
10200220,
10200220,
1110,
1000200000202100,
10201220,
30200221,
500000000000000000000000000000000008000000000000,
1111,
12101212,
11111111,
1110111011111000,
3004, //13
#GOGOSTART
1000100030040001,
1010110020202000,
1000100010020001,
1010110022001000,
1000100030040001,
1010110020202201,
1010110010002001,
01001020, //21
#GOGOEND
7,
08,
1001100010020000,
1001002010010050,
000000000000000000000000000000000008000000000000,
3003004004003003,
0040040030040040,
1101101100002000, //29
1202,
0202,
500000000000000000000000000000000000000000000008,
0202,
1202,
1202,
5,
000000000000000000000000000000000008000000000000,
2,
200200111100, //39
10001000300
#GOGOSTART
40001,
1010110020202000,
1000100010020001,
1010110022001000,
1000100030040001,
1010110020202201,
1010110010002001,
01001020, //47
1020102030040001,
1010210020202000,
1020102010020001,
1010210020001000,
1020102030040001,
1010210020202201,
1010210010002001,
01001020, //55
#GOGOEND
7,
80012122,
100000200000100000200000100000200500000008000000,
11212120,
1020102010210020,
100000100000200200000000500000000008000000000000,
1110202011111000,
#GOGOSTART
1103002204000000,
#GOGOEND
0,
0, //65
#END

COURSE:Normal
LEVEL:5
BALLOON:19,12
SCOREINIT:800,4830
SCOREDIFF:258
#START
10200220,
10200220,
10200220,
1110,
10200220,
10200220,
30200220,
500000000000000000000000000000000008000000000000,
11,
1110,
11,
10101110,
3, //13
#GOGOSTART
1000100030040000,
11102220,
1000100010020000,
22202020,
1000100010020000,
11102000,
1010100020002001,
01001020, //21
#GOGOEND
7,
08,
1000100010020000,
1001000010010050,
000000000000000000000000000000000008000000000000,
30030030,
03003000,
600000000000000000000000000000000008000000000000, //29
1110,
12,
500000000000000000000000000000000000000000000008,
02,
1110,
12,
5,
000000000000000000000000000008000000000000000000,
1,
2214, //39
10001000300
#GOGOSTART
40000,
11102220,
1000100010020000,
22202020,
1000100010020000,
11102000,
1010100020002001,
01001020, //47
1000100030040000,
11102220,
1000100010020000,
22202020,
1000100010020000,
11102000,
1010100020002001,
01001020, //55
#GOGOEND
7,
8022,
1000100010020000,
11102220,
1000100010020000,
11102000,
1134,
#GOGOSTART
1003002004000000,
#GOGOEND
0,
0, //65
#END

COURSE:Easy
LEVEL:3
BALLOON:16,10,8
SCOREINIT:930,9720
SCOREDIFF:535
#START
1,
1,
1,
11,
1,
1,
3,
500000000000000000000000000008000000000000000000,
11,
1,
11,
1,
3, //13
#GOGOSTART
1130,
11,
1110,
22,
1110,
11,
22,
0011, //21
#GOGOEND
7,
08,
11,
10002005,
000000000000000000000000000008000000000000000000,
3003,
04,
600000000000000000000000000008000000000000000000, //29
1110,
1,
500000000000000000000000000000000000000000000008,
02,
1110,
1,
5,
000000000000000000000008000000000000000000000000,
1,
11, //39
10001000300
#GOGOSTART
00000,
11,
1110,
22,
1110,
11,
22,
01, //47
1130,
11,
1110,
22,
1110,
11,
22,
0011, //55
#GOGOEND
7,
8,
11,
1110,
11,
1110,
12,
#GOGOSTART
9009,
#GOGOEND
8,
0, //65
#END
