//TJADB Project
TITLE:Classical Medley -Winter Break Version-
TITLEJA:クラシックメドレー(冬休み編)
SUBTITLE:--
SUBTITLEJA:
BPM:126
WAVE:Classical Medley -Winter Break Version-.ogg
OFFSET:-3.492
DEMOSTART:11.111

COURSE:Oni
LEVEL:10
BALLOON:14
SCOREINIT:1530
SCOREDIFF:0
#START
#MEASURE 8/4
#SCROLL 0.5
10111011102220111011201120112022,
10111011102220111011201120112022,
10102011101020111022202220221222,
10222022102220111011202210001000,
10001022200010001011102220001000,
#BPMCHANGE 125
500000000000000000000000
#BPMCHANGE 120
000000000000000000000000
#BPMCHANGE 105
000000000000000000080000
#BPMCHANGE 85
000000000000
#BPMCHANGE 72
000000000000, //6
#MEASURE 4/4
#BPMCHANGE 104
#SCROLL 1
30303232,
#BPMCHANGE 105
1212112112121121,
#BPMCHANGE 104.5
100000202020100200000100100000100100200100200200,
#BPMCHANGE 106
1022102120121120,
#BPMCHANGE 104.5
1221122212212222, //11
#BPMCHANGE 105
100000202020100200200100100100200100200100100100,
100200200100100200202020100100200100200000200000,
300000101010200000100000300000101020200000100000,
70000800,
100000220000100000220000100000220000220000110000,
100100200100102020101020100000200000100000000000,
2121212220101011,
200100200100200100200100200200100200100000101010, //19
200000102020200000200000100000000100100000200000,
#MEASURE 2/4
#BPMCHANGE 87
#SCROLL 1.2
1222
#BPMCHANGE 76.5
#SCROLL 1
1222,
#MEASURE 4/4
#BPMCHANGE 77
12201220,
#MEASURE 2/4
1221,
#MEASURE 4/4
#BPMCHANGE 154
500000000000000000000000000000000008000000000000, //24
#BPMCHANGE 212.66
11122112,
#BPMCHANGE 211.3
12221221,
#BPMCHANGE 213.43
1444,
#BPMCHANGE 202
3111,
#MEASURE 2/4
#BPMCHANGE 76.5
4
#BPMCHANGE 40
#SCROLL 6
3,
#MEASURE 4/4
#BPMCHANGE 93
#SCROLL 2.06
500000000000
#BPMCHANGE 110
000000000000
#BPMCHANGE 120
000000000008
#BPMCHANGE 130
000000000000, //30
#BPMCHANGE 140
#SCROLL 1.5
#GOGOSTART
322322311422,
322322311411,
322321411412,
301110202030301110202010,
302020302020301110402220,
302020302020121212111210,
322321411412,
221110202210211110202010, //38
302020302020301110402220,
111111222222111111222222,
111111221111100010401010,
301110401110301010200020,
302220301110302210301210,
302220302210401210401110,
112220112220221010221010,
112220101040400010202020, //46
#GOGOEND
101010200020100111202020,
#MEASURE 6/4
#BPMCHANGE 126.34
100020002000
#BPMCHANGE 128
100020002000
#BPMCHANGE 124
500000000000000000000008000000000000000000000000,
#MEASURE 4/4
#BPMCHANGE 126.63
#SCROLL 1
1022,
#BPMCHANGE 129.44
1122,
#BPMCHANGE 126.72
1212, //51
#BPMCHANGE 187
#SCROLL 1.5
#GOGOSTART
301202301211,
301202301211,
311222304040,
#MEASURE 2/4
3,
3,
#MEASURE 4/4
#BPMCHANGE 280
#SCROLL 1
222111221111,
222111211111,
#MEASURE 5/4
221
#GOGOEND
#BPMCHANGE 140
#SCROLL 2
100000000000,
#SCROLL 1
0, //60
#END

COURSE:Hard
LEVEL:7
BALLOON:10,20
SCOREINIT:2970
SCOREDIFF:0
#START
#MEASURE 8/4
#SCROLL 0.5
1010101110101000,
1010101110102020,
1001100110202020,
10000010100000111000100010000000,
10000022200010001000002220001000,
#BPMCHANGE 125
500000000000000000000000
#BPMCHANGE 120
000000000000000000000000
#BPMCHANGE 105
000000000000000000080000
#BPMCHANGE 85
000000000000
#BPMCHANGE 72
000000000000, //6
#MEASURE 4/4
#BPMCHANGE 104
#SCROLL 1
30303232,
#BPMCHANGE 105
1010110110102020,
#BPMCHANGE 104.5
1000100110102020,
#BPMCHANGE 106
1000100120101020,
#BPMCHANGE 104.5
1011102011101110, //11
#BPMCHANGE 105
1000100110102020,
1001100110102000,
31203120,
70000800,
12121221,
1110111010202000,
2020202220101000,
2020202020111010, //19
2010202010011020,
#MEASURE 2/4
#BPMCHANGE 87
#SCROLL 1.2
1
#BPMCHANGE 76.5
#SCROLL 1
1,
#MEASURE 4/4
#BPMCHANGE 77
12201220,
#MEASURE 2/4
1222,
#MEASURE 4/4
#BPMCHANGE 154
500000000000000000000000000000000008000000000000, //24
#BPMCHANGE 212.66
11101110,
#BPMCHANGE 211.3
22202220,
#BPMCHANGE 213.43
0444,
#BPMCHANGE 202
4,
#MEASURE 2/4
#BPMCHANGE 76.5
4
#BPMCHANGE 40
#SCROLL 6
3,
#MEASURE 4/4
#BPMCHANGE 93
#SCROLL 2.06
500000000000
#BPMCHANGE 110
000000000000
#BPMCHANGE 120
000000000008
#BPMCHANGE 130
000000000000, //30
#BPMCHANGE 140
#SCROLL 1.5
#GOGOSTART
301101101200,
101101101200,
102201101202,
100101300200,
301101101200,
101101101200,
102201101202,
100101300200, //38
301201111402,
101201100200,
301101222102,
101201200100,
301101211202,
101102112102,
102201111202,
100101300200, //46
#GOGOEND
111102101202,
#MEASURE 6/4
#BPMCHANGE 126.34
100020002000
#BPMCHANGE 128
100000002000
#BPMCHANGE 124
500000000000000000000008000000000000000000000000,
#MEASURE 4/4
#BPMCHANGE 126.63
#SCROLL 1
1022,
#BPMCHANGE 129.44
1122,
#BPMCHANGE 126.72
1212, //51
#BPMCHANGE 187
#SCROLL 1.5
#GOGOSTART
300202100200,
300202100200,
111200303030,
#MEASURE 2/4
3,
9,
#MEASURE 4/4
#BPMCHANGE 280
#SCROLL 1
0,
09,
#MEASURE 5/4
0
#GOGOEND
#BPMCHANGE 140
#SCROLL 2
8000,
#SCROLL 1
0, //60
#END

COURSE:Normal
LEVEL:5
BALLOON:8,8,12
SCOREINIT:5810
SCOREDIFF:0
#START
#MEASURE 8/4
#SCROLL 0.5
10101110,
10101110,
1000100110000010,
1112,
33,
#BPMCHANGE 125
500000000000000000000000
#BPMCHANGE 120
000000000000000000000000
#BPMCHANGE 105
000000000000000000080000
#BPMCHANGE 85
000000000000
#BPMCHANGE 72
000000000000, //6
#MEASURE 4/4
#BPMCHANGE 104
#SCROLL 1
3330,
#BPMCHANGE 105
11101110,
#BPMCHANGE 104.5
1000100110000000,
#BPMCHANGE 106
1110,
#BPMCHANGE 104.5
20202220, //11
#BPMCHANGE 105
1000100110000000,
1110,
3232,
70000800,
1212,
11102220,
22222000,
22222000, //19
1000100010011000,
#MEASURE 2/4
#BPMCHANGE 87
#SCROLL 1.2
3
#BPMCHANGE 76.5
#SCROLL 1
3,
#MEASURE 4/4
#BPMCHANGE 77
3,
#MEASURE 2/4
0,
#MEASURE 4/4
#BPMCHANGE 154
0, //24
#BPMCHANGE 212.66
3003,
#BPMCHANGE 211.3
0003,
#BPMCHANGE 213.43
0700,
#BPMCHANGE 202
08,
#MEASURE 2/4
#BPMCHANGE 76.5
0
#BPMCHANGE 40
#SCROLL 6
3,
#MEASURE 4/4
#BPMCHANGE 93
#SCROLL 2.06
500000000000
#BPMCHANGE 110
000000000000
#BPMCHANGE 120
000000000008
#BPMCHANGE 130
000000000000, //30
#BPMCHANGE 140
#SCROLL 1.5
#GOGOSTART
1112,
1112,
1122,
100002200000,
1112,
1112,
1122,
100002200000, //38
101100100200,
101100100200,
100101100200,
1211,
1012,
1112,
1122,
100002200000, //46
#GOGOEND
11,
#MEASURE 6/4
#BPMCHANGE 126.34
100000000000
#BPMCHANGE 128
000000000000
#BPMCHANGE 124
500000000000000000000008000000000000000000000000,
#MEASURE 4/4
#BPMCHANGE 126.63
#SCROLL 1
1011,
#BPMCHANGE 129.44
11,
#BPMCHANGE 126.72
1110, //51
#BPMCHANGE 187
#SCROLL 1.5
#GOGOSTART
3112,
3112,
3330,
#MEASURE 2/4
3,
9,
#MEASURE 4/4
#BPMCHANGE 280
#SCROLL 1
0,
09,
#MEASURE 5/4
0
#GOGOEND
#BPMCHANGE 140
#SCROLL 2
8000,
#SCROLL 1
0, //60
#END

COURSE:Easy
LEVEL:3
BALLOON:6,6,10
SCOREINIT:9740
SCOREDIFF:0
#START
#MEASURE 8/4
#SCROLL 0.5
1112,
1112,
1110,
1110,
33,
#BPMCHANGE 125
500000000000000000000000
#BPMCHANGE 120
000000000000000000000000
#BPMCHANGE 105
000000000000000000080000
#BPMCHANGE 85
000000000000
#BPMCHANGE 72
000000000000, //6
#MEASURE 4/4
#BPMCHANGE 104
#SCROLL 1
3330,
#BPMCHANGE 105
11,
#BPMCHANGE 104.5
1110,
#BPMCHANGE 106
1110,
#BPMCHANGE 104.5
22, //11
#BPMCHANGE 105
1110,
1110,
33,
70000800,
11,
11,
2220,
2220, //19
11,
#MEASURE 2/4
#BPMCHANGE 87
#SCROLL 1.2
3
#BPMCHANGE 76.5
#SCROLL 1
3,
#MEASURE 4/4
#BPMCHANGE 77
3,
#MEASURE 2/4
0,
#MEASURE 4/4
#BPMCHANGE 154
0, //24
#BPMCHANGE 212.66
3003,
#BPMCHANGE 211.3
0003,
#BPMCHANGE 213.43
0700,
#BPMCHANGE 202
08,
#MEASURE 2/4
#BPMCHANGE 76.5
0
#BPMCHANGE 40
#SCROLL 6
3,
#MEASURE 4/4
#BPMCHANGE 93
#SCROLL 2.06
500000000000
#BPMCHANGE 110
000000000000
#BPMCHANGE 120
000000000008
#BPMCHANGE 130
000000000000, //30
#BPMCHANGE 140
#SCROLL 1.5
#GOGOSTART
11,
1110,
11,
600000000000000000000008000000000000000000000000,
11,
1110,
11,
12, //38
11,
1110,
1110,
1210,
11,
1110,
11,
600000000000000000000008000000000000000000000000, //46
#GOGOEND
11,
#MEASURE 6/4
#BPMCHANGE 126.34
100000000000
#BPMCHANGE 128
000000000000
#BPMCHANGE 124
500000000000000000000008000000000000000000000000,
#MEASURE 4/4
#BPMCHANGE 126.63
#SCROLL 1
1,
#BPMCHANGE 129.44
1,
#BPMCHANGE 126.72
11, //51
#BPMCHANGE 187
#SCROLL 1.5
#GOGOSTART
3,
3,
33,
#MEASURE 2/4
3,
9,
#MEASURE 4/4
#BPMCHANGE 280
#SCROLL 1
0,
09,
#MEASURE 5/4
0
#GOGOEND
#BPMCHANGE 140
#SCROLL 2
8000,
#SCROLL 1
0, //60
#END
