//TJADB Project
TITLE:UMA no Force Train2000ing [180 BPM ver.]
TITLEJA:UMAのフォーストレーニ千グ 【BPM180編】
SUBTITLE:--LindaAI-CUE × Masubuchi prod. Licht Tsuboi × Kawagen Kollagen (BNSI)
SUBTITLEJA:LindaAI-CUE × マスブチ prod. 坪井リヒト × Kawagen Kollagen (BNSI)
BPM:180
WAVE:UMA no Force Train2000ing (180BPM).ogg
OFFSET:-1.502
DEMOSTART:2.835

COURSE:Edit
LEVEL:9
BALLOON:2
SCOREINIT:3000
SCOREDIFF:0
#START
0,
1110111011101110,
1110111011101110,
1122101011221010,
1122101011221010,
2220222022202220,
2220222022202220,
1222102012221020,
1222102012221020, //9
1110111011101110,
1110111011101110,
1121101011211010,
1121101011211010,
2220222022202220,
2220222022202220,
1212102012121020,
1212102012121020, //17
1110111011211010,
1222102012121020,
1110111011211010,
1222102012121020,
#GOGOSTART
1111111111111110,
2222222222222220,
1111111122222222,
1111111122222222,
1122112211221122,
1122112211221122,
#GOGOEND
#SCROLL 7.65
7800, //28
#MEASURE 1/32
0,
#SCROLL 7.41
0,
#SCROLL 7.17
0,
#SCROLL 6.94
0,
#SCROLL 6.72
0,
#SCROLL 6.51
0,
#SCROLL 6.3
0,
#SCROLL 6.1
0,
#SCROLL 5.91
0,
#SCROLL 5.72
0,
#SCROLL 5.54
0,
#SCROLL 5.36
0,
#SCROLL 5.19
0,
#SCROLL 5.03
0,
#SCROLL 4.87
0,
#SCROLL 4.71
0, //44
#SCROLL 4.56
0,
#SCROLL 4.42
0,
#SCROLL 4.28
0,
#SCROLL 4.14
0,
#SCROLL 4.01
0,
#SCROLL 3.88
0,
#SCROLL 3.76
0,
#SCROLL 3.64
0,
#SCROLL 3.52
0,
#SCROLL 3.41
0,
#SCROLL 3.3
0,
#SCROLL 3.2
0,
#SCROLL 3.1
0,
#SCROLL 3
0,
#SCROLL 2.9
0,
#SCROLL 2.81
0, //60
#SCROLL 2.72
0,
#SCROLL 2.64
0,
#SCROLL 2.55
0,
#SCROLL 2.47
0,
#SCROLL 2.39
0,
#SCROLL 2.32
0,
#SCROLL 2.24
0,
#SCROLL 2.17
0,
#SCROLL 2.1
0,
#SCROLL 2.04
0,
#SCROLL 1.97
0,
#SCROLL 1.91
0,
#SCROLL 1.85
0,
#SCROLL 1.79
0,
#SCROLL 1.73
0,
#SCROLL 1.68
0, //76
#SCROLL 1.62
0,
#SCROLL 1.57
0,
#SCROLL 1.52
0,
#SCROLL 1.47
0,
#SCROLL 1.43
0,
#SCROLL 1.38
0,
#SCROLL 1.34
0,
#SCROLL 1.29
0,
#SCROLL 1.25
0,
#SCROLL 1.21
0,
#SCROLL 1.18
0,
#SCROLL 1.14
0,
#SCROLL 1.1
0,
#SCROLL 1.07
0,
#SCROLL 1.03
0,
#SCROLL 1
0, //92
#END

COURSE:Oni
LEVEL:8
BALLOON:2
SCOREINIT:3630
SCOREDIFF:0
#START
0,
1010111010101110,
1010111010101110,
1020112010201120,
1020112010201120,
2020222020202220,
2020222020202220,
2010221020102210,
2010221020102210, //9
1010111010101110,
1010111010101110,
1010211010102110,
1010211010102110,
2020222020202220,
2020222020202220,
2020122020201220,
2020122020201220, //17
1010111010102110,
2010221010201220,
1010111010102110,
2010221010201220,
#GOGOSTART
1111101011111010,
1111101011111010,
2222202022222020,
2222202022222020,
1111111011111110,
2222222022222220,
#GOGOEND
#SCROLL 7.65
7800, //28
#MEASURE 1/32
0,
#SCROLL 7.41
0,
#SCROLL 7.17
0,
#SCROLL 6.94
0,
#SCROLL 6.72
0,
#SCROLL 6.51
0,
#SCROLL 6.3
0,
#SCROLL 6.1
0,
#SCROLL 5.91
0,
#SCROLL 5.72
0,
#SCROLL 5.54
0,
#SCROLL 5.36
0,
#SCROLL 5.19
0,
#SCROLL 5.03
0,
#SCROLL 4.87
0,
#SCROLL 4.71
0, //44
#SCROLL 4.56
0,
#SCROLL 4.42
0,
#SCROLL 4.28
0,
#SCROLL 4.14
0,
#SCROLL 4.01
0,
#SCROLL 3.88
0,
#SCROLL 3.76
0,
#SCROLL 3.64
0,
#SCROLL 3.52
0,
#SCROLL 3.41
0,
#SCROLL 3.3
0,
#SCROLL 3.2
0,
#SCROLL 3.1
0,
#SCROLL 3
0,
#SCROLL 2.9
0,
#SCROLL 2.81
0, //60
#SCROLL 2.72
0,
#SCROLL 2.64
0,
#SCROLL 2.55
0,
#SCROLL 2.47
0,
#SCROLL 2.39
0,
#SCROLL 2.32
0,
#SCROLL 2.24
0,
#SCROLL 2.17
0,
#SCROLL 2.1
0,
#SCROLL 2.04
0,
#SCROLL 1.97
0,
#SCROLL 1.91
0,
#SCROLL 1.85
0,
#SCROLL 1.79
0,
#SCROLL 1.73
0,
#SCROLL 1.68
0, //76
#SCROLL 1.62
0,
#SCROLL 1.57
0,
#SCROLL 1.52
0,
#SCROLL 1.47
0,
#SCROLL 1.43
0,
#SCROLL 1.38
0,
#SCROLL 1.34
0,
#SCROLL 1.29
0,
#SCROLL 1.25
0,
#SCROLL 1.21
0,
#SCROLL 1.18
0,
#SCROLL 1.14
0,
#SCROLL 1.1
0,
#SCROLL 1.07
0,
#SCROLL 1.03
0,
#SCROLL 1
0, //92
#END

COURSE:Hard
LEVEL:7
BALLOON:2
SCOREINIT:4910
SCOREDIFF:0
#START
0,
1010111010101000,
1010111010101000,
12121210,
12121210,
2020222020202000,
2020222020202000,
21212120,
21212120, //9
1010111010101000,
1010111010101000,
11221120,
11221120,
2020222020202000,
2020222020202000,
22112210,
22112210, //17
1010111010102000,
21212210,
1010111010102000,
21212210,
#GOGOSTART
1010111011101000,
1010111011101000,
2020222022202000,
2020222022202000,
1010111011101000,
2020222022202000,
#GOGOEND
#SCROLL 7.65
7800, //28
#MEASURE 1/32
0,
#SCROLL 7.41
0,
#SCROLL 7.17
0,
#SCROLL 6.94
0,
#SCROLL 6.72
0,
#SCROLL 6.51
0,
#SCROLL 6.3
0,
#SCROLL 6.1
0,
#SCROLL 5.91
0,
#SCROLL 5.72
0,
#SCROLL 5.54
0,
#SCROLL 5.36
0,
#SCROLL 5.19
0,
#SCROLL 5.03
0,
#SCROLL 4.87
0,
#SCROLL 4.71
0, //44
#SCROLL 4.56
0,
#SCROLL 4.42
0,
#SCROLL 4.28
0,
#SCROLL 4.14
0,
#SCROLL 4.01
0,
#SCROLL 3.88
0,
#SCROLL 3.76
0,
#SCROLL 3.64
0,
#SCROLL 3.52
0,
#SCROLL 3.41
0,
#SCROLL 3.3
0,
#SCROLL 3.2
0,
#SCROLL 3.1
0,
#SCROLL 3
0,
#SCROLL 2.9
0,
#SCROLL 2.81
0, //60
#SCROLL 2.72
0,
#SCROLL 2.64
0,
#SCROLL 2.55
0,
#SCROLL 2.47
0,
#SCROLL 2.39
0,
#SCROLL 2.32
0,
#SCROLL 2.24
0,
#SCROLL 2.17
0,
#SCROLL 2.1
0,
#SCROLL 2.04
0,
#SCROLL 1.97
0,
#SCROLL 1.91
0,
#SCROLL 1.85
0,
#SCROLL 1.79
0,
#SCROLL 1.73
0,
#SCROLL 1.68
0, //76
#SCROLL 1.62
0,
#SCROLL 1.57
0,
#SCROLL 1.52
0,
#SCROLL 1.47
0,
#SCROLL 1.43
0,
#SCROLL 1.38
0,
#SCROLL 1.34
0,
#SCROLL 1.29
0,
#SCROLL 1.25
0,
#SCROLL 1.21
0,
#SCROLL 1.18
0,
#SCROLL 1.14
0,
#SCROLL 1.1
0,
#SCROLL 1.07
0,
#SCROLL 1.03
0,
#SCROLL 1
0, //92
#END

COURSE:Normal
LEVEL:6
BALLOON:2
SCOREINIT:6950
SCOREDIFF:0
#START
0,
11101110,
11101110,
10101210,
10101210,
22202220,
22202220,
20202120,
20202120, //9
11101110,
11101110,
10201120,
10201120,
22202220,
22202220,
20102210,
20102210, //17
11101020,
20202210,
11101020,
20202210,
#GOGOSTART
11101120,
11101120,
22202210,
22202210,
11101120,
22202210,
#GOGOEND
#SCROLL 7.65
7800, //28
#MEASURE 1/32
0,
#SCROLL 7.41
0,
#SCROLL 7.17
0,
#SCROLL 6.94
0,
#SCROLL 6.72
0,
#SCROLL 6.51
0,
#SCROLL 6.3
0,
#SCROLL 6.1
0,
#SCROLL 5.91
0,
#SCROLL 5.72
0,
#SCROLL 5.54
0,
#SCROLL 5.36
0,
#SCROLL 5.19
0,
#SCROLL 5.03
0,
#SCROLL 4.87
0,
#SCROLL 4.71
0, //44
#SCROLL 4.56
0,
#SCROLL 4.42
0,
#SCROLL 4.28
0,
#SCROLL 4.14
0,
#SCROLL 4.01
0,
#SCROLL 3.88
0,
#SCROLL 3.76
0,
#SCROLL 3.64
0,
#SCROLL 3.52
0,
#SCROLL 3.41
0,
#SCROLL 3.3
0,
#SCROLL 3.2
0,
#SCROLL 3.1
0,
#SCROLL 3
0,
#SCROLL 2.9
0,
#SCROLL 2.81
0, //60
#SCROLL 2.72
0,
#SCROLL 2.64
0,
#SCROLL 2.55
0,
#SCROLL 2.47
0,
#SCROLL 2.39
0,
#SCROLL 2.32
0,
#SCROLL 2.24
0,
#SCROLL 2.17
0,
#SCROLL 2.1
0,
#SCROLL 2.04
0,
#SCROLL 1.97
0,
#SCROLL 1.91
0,
#SCROLL 1.85
0,
#SCROLL 1.79
0,
#SCROLL 1.73
0,
#SCROLL 1.68
0, //76
#SCROLL 1.62
0,
#SCROLL 1.57
0,
#SCROLL 1.52
0,
#SCROLL 1.47
0,
#SCROLL 1.43
0,
#SCROLL 1.38
0,
#SCROLL 1.34
0,
#SCROLL 1.29
0,
#SCROLL 1.25
0,
#SCROLL 1.21
0,
#SCROLL 1.18
0,
#SCROLL 1.14
0,
#SCROLL 1.1
0,
#SCROLL 1.07
0,
#SCROLL 1.03
0,
#SCROLL 1
0, //92
#END

COURSE:Easy
LEVEL:4
BALLOON:2
SCOREINIT:12200
SCOREDIFF:0
#START
0,
1110,
1110,
1210,
1210,
2220,
2220,
2120,
2120, //9
1110,
1110,
1120,
1120,
2220,
2220,
2210,
2210, //17
1120,
2210,
1120,
2210,
#GOGOSTART
1111,
1110,
2222,
2220,
1111,
2222,
#GOGOEND
#SCROLL 7.65
7800, //28
#MEASURE 1/32
0,
#SCROLL 7.41
0,
#SCROLL 7.17
0,
#SCROLL 6.94
0,
#SCROLL 6.72
0,
#SCROLL 6.51
0,
#SCROLL 6.3
0,
#SCROLL 6.1
0,
#SCROLL 5.91
0,
#SCROLL 5.72
0,
#SCROLL 5.54
0,
#SCROLL 5.36
0,
#SCROLL 5.19
0,
#SCROLL 5.03
0,
#SCROLL 4.87
0,
#SCROLL 4.71
0, //44
#SCROLL 4.56
0,
#SCROLL 4.42
0,
#SCROLL 4.28
0,
#SCROLL 4.14
0,
#SCROLL 4.01
0,
#SCROLL 3.88
0,
#SCROLL 3.76
0,
#SCROLL 3.64
0,
#SCROLL 3.52
0,
#SCROLL 3.41
0,
#SCROLL 3.3
0,
#SCROLL 3.2
0,
#SCROLL 3.1
0,
#SCROLL 3
0,
#SCROLL 2.9
0,
#SCROLL 2.81
0, //60
#SCROLL 2.72
0,
#SCROLL 2.64
0,
#SCROLL 2.55
0,
#SCROLL 2.47
0,
#SCROLL 2.39
0,
#SCROLL 2.32
0,
#SCROLL 2.24
0,
#SCROLL 2.17
0,
#SCROLL 2.1
0,
#SCROLL 2.04
0,
#SCROLL 1.97
0,
#SCROLL 1.91
0,
#SCROLL 1.85
0,
#SCROLL 1.79
0,
#SCROLL 1.73
0,
#SCROLL 1.68
0, //76
#SCROLL 1.62
0,
#SCROLL 1.57
0,
#SCROLL 1.52
0,
#SCROLL 1.47
0,
#SCROLL 1.43
0,
#SCROLL 1.38
0,
#SCROLL 1.34
0,
#SCROLL 1.29
0,
#SCROLL 1.25
0,
#SCROLL 1.21
0,
#SCROLL 1.18
0,
#SCROLL 1.14
0,
#SCROLL 1.1
0,
#SCROLL 1.07
0,
#SCROLL 1.03
0,
#SCROLL 1
0, //92
#END
