//TJADB Project
TITLE:UMA no Force Train2000ing [240 BPM ver.]
TITLEJA:UMAのフォーストレーニ千グ 【BPM240編】
SUBTITLE:--LindaAI-CUE × Masubuchi prod. Licht Tsuboi × Kawagen Kollagen (BNSI)
SUBTITLEJA:LindaAI-CUE × マスブチ prod. 坪井リヒト × Kawagen Kollagen (BNSI)
BPM:240
WAVE:UMA no Force Train2000ing (240BPM).ogg
OFFSET:-1.169
DEMOSTART:2.169

COURSE:Edit
LEVEL:10
BALLOON:
SCOREINIT:2750
SCOREDIFF:0
#START
0,
1110101011101010,
1110101011221000,
1110101011101010,
1110101011221000,
2220202022202020,
2220202022112000,
2220202022202020,
2220202022112000, //9
1120102011201020,
1120102011211000,
1120102011201020,
1120102011211000,
1022102010221020,
1022102012221000,
1022102010221020,
1022102012221000, //17
1210101012101010,
1210101012121000,
1210101012101010,
1210101012121000,
1021201010212010,
1021201021212000,
1021201010212010,
1021201021212000, //25
#GOGOSTART
1110111011101110,
1110111011101110,
2220222022202220,
2220222022202220,
1120112011201120,
1120112011201120,
2210221022102210,
2210221022102210,
1122102011221020,
1122112211221122, //35
#GOGOEND
#SCROLL 20.26
600000000000000000000000000008000000000000000000, //36
#MEASURE 1/4
#SCROLL 1
0,
#SCROLL 1.21
0,
#SCROLL 1.47
0,
#MEASURE 1/8
#SCROLL 1.79
0,
#SCROLL 1.97
0,
#SCROLL 2.17
0,
#SCROLL 2.4
0,
#SCROLL 2.64
0,
#SCROLL 2.91
0,
#SCROLL 3.2
0,
#SCROLL 3.53
0,
#SCROLL 3.89
0, //48
#MEASURE 1/16
#SCROLL 4.29
0,
#SCROLL 4.5
0,
#SCROLL 4.72
0,
#SCROLL 4.96
0,
#SCROLL 5.21
0,
#SCROLL 5.47
0,
#SCROLL 5.74
0,
#SCROLL 6.02
0,
#SCROLL 6.32
0,
#SCROLL 6.64
0,
#SCROLL 6.97
0,
#SCROLL 7.31
0,
#SCROLL 7.68
0,
#SCROLL 8.06
0,
#SCROLL 8.46
0,
#SCROLL 8.88
0, //64
#MEASURE 1/32
#SCROLL 9.32
0,
#SCROLL 9.55
0,
#SCROLL 9.78
0,
#SCROLL 10.02
0,
#SCROLL 10.27
0,
#SCROLL 10.52
0,
#SCROLL 10.78
0,
#SCROLL 11.05
0,
#SCROLL 11.32
0,
#SCROLL 11.6
0,
#SCROLL 11.88
0,
#SCROLL 12.17
0,
#SCROLL 12.47
0,
#SCROLL 12.78
0,
#SCROLL 13.09
0,
#SCROLL 13.41
0, //80
#SCROLL 13.74
0,
#SCROLL 14.08
0,
#SCROLL 14.42
0,
#SCROLL 14.78
0,
#SCROLL 15.14
0,
#SCROLL 15.51
0,
#SCROLL 15.9
0,
#SCROLL 16.29
0,
#SCROLL 16.69
0,
#SCROLL 17.1
0,
#SCROLL 17.52
0,
#SCROLL 17.95
0,
#SCROLL 18.39
0,
#SCROLL 18.84
0,
#SCROLL 19.3
0,
#SCROLL 19.77
0, //96
#MEASURE 4/4
#SCROLL 20.26
0,
0,
0, //99
#END

COURSE:Oni
LEVEL:10
BALLOON:
SCOREINIT:3170
SCOREDIFF:0
#START
0,
11111111,
1010101011101000,
11111111,
1010101011101000,
1010101011101010,
1010101011101000,
1010101011101010,
1010101011101000, //9
12121212,
1020102011201000,
12121212,
1020102011201000,
1020102011201020,
1020102011201000,
1020102011201020,
1020102011201000, //17
1120102011201020,
1120102011112000,
1120102011201020,
1120102011112000,
1022102010221020,
1022102022221000,
1022102010221020,
1022102022221000, //25
#GOGOSTART
1010101011101110,
1010101011101110,
1020102011201120,
1020102011201120,
1020112010201120,
1020112010201120,
1022102010221020,
1022102010221020,
1111202011112020,
1111202011112020, //35
#GOGOEND
#SCROLL 20.26
600000000000000000000000000008000000000000000000, //36
#MEASURE 1/4
#SCROLL 1
0,
#SCROLL 1.21
0,
#SCROLL 1.47
0,
#MEASURE 1/8
#SCROLL 1.79
0,
#SCROLL 1.97
0,
#SCROLL 2.17
0,
#SCROLL 2.4
0,
#SCROLL 2.64
0,
#SCROLL 2.91
0,
#SCROLL 3.2
0,
#SCROLL 3.53
0,
#SCROLL 3.89
0, //48
#MEASURE 1/16
#SCROLL 4.29
0,
#SCROLL 4.5
0,
#SCROLL 4.72
0,
#SCROLL 4.96
0,
#SCROLL 5.21
0,
#SCROLL 5.47
0,
#SCROLL 5.74
0,
#SCROLL 6.02
0,
#SCROLL 6.32
0,
#SCROLL 6.64
0,
#SCROLL 6.97
0,
#SCROLL 7.31
0,
#SCROLL 7.68
0,
#SCROLL 8.06
0,
#SCROLL 8.46
0,
#SCROLL 8.88
0, //64
#MEASURE 1/32
#SCROLL 9.32
0,
#SCROLL 9.55
0,
#SCROLL 9.78
0,
#SCROLL 10.02
0,
#SCROLL 10.27
0,
#SCROLL 10.52
0,
#SCROLL 10.78
0,
#SCROLL 11.05
0,
#SCROLL 11.32
0,
#SCROLL 11.6
0,
#SCROLL 11.88
0,
#SCROLL 12.17
0,
#SCROLL 12.47
0,
#SCROLL 12.78
0,
#SCROLL 13.09
0,
#SCROLL 13.41
0, //80
#SCROLL 13.74
0,
#SCROLL 14.08
0,
#SCROLL 14.42
0,
#SCROLL 14.78
0,
#SCROLL 15.14
0,
#SCROLL 15.51
0,
#SCROLL 15.9
0,
#SCROLL 16.29
0,
#SCROLL 16.69
0,
#SCROLL 17.1
0,
#SCROLL 17.52
0,
#SCROLL 17.95
0,
#SCROLL 18.39
0,
#SCROLL 18.84
0,
#SCROLL 19.3
0,
#SCROLL 19.77
0, //96
#MEASURE 4/4
#SCROLL 20.26
0,
0,
0, //99
#END

COURSE:Hard
LEVEL:7
BALLOON:
SCOREINIT:5440
SCOREDIFF:0
#START
0,
11101110,
11101000,
11101110,
11101000,
22202220,
22202000,
22202220,
22202000, //9
11102220,
11102000,
11102220,
11102000,
22201110,
22201000,
22201110,
22201000, //17
11101120,
11102000,
11101120,
11102000,
22202210,
22201000,
22202210,
22201000, //25
#GOGOSTART
11101110,
11101110,
11101110,
11101110,
11201120,
11201120,
11201120,
11201120,
12121212,
12121212, //35
#GOGOEND
#SCROLL 20.26
600000000000000000000000000008000000000000000000, //36
#MEASURE 1/4
#SCROLL 1
0,
#SCROLL 1.21
0,
#SCROLL 1.47
0,
#MEASURE 1/8
#SCROLL 1.79
0,
#SCROLL 1.97
0,
#SCROLL 2.17
0,
#SCROLL 2.4
0,
#SCROLL 2.64
0,
#SCROLL 2.91
0,
#SCROLL 3.2
0,
#SCROLL 3.53
0,
#SCROLL 3.89
0, //48
#MEASURE 1/16
#SCROLL 4.29
0,
#SCROLL 4.5
0,
#SCROLL 4.72
0,
#SCROLL 4.96
0,
#SCROLL 5.21
0,
#SCROLL 5.47
0,
#SCROLL 5.74
0,
#SCROLL 6.02
0,
#SCROLL 6.32
0,
#SCROLL 6.64
0,
#SCROLL 6.97
0,
#SCROLL 7.31
0,
#SCROLL 7.68
0,
#SCROLL 8.06
0,
#SCROLL 8.46
0,
#SCROLL 8.88
0, //64
#MEASURE 1/32
#SCROLL 9.32
0,
#SCROLL 9.55
0,
#SCROLL 9.78
0,
#SCROLL 10.02
0,
#SCROLL 10.27
0,
#SCROLL 10.52
0,
#SCROLL 10.78
0,
#SCROLL 11.05
0,
#SCROLL 11.32
0,
#SCROLL 11.6
0,
#SCROLL 11.88
0,
#SCROLL 12.17
0,
#SCROLL 12.47
0,
#SCROLL 12.78
0,
#SCROLL 13.09
0,
#SCROLL 13.41
0, //80
#SCROLL 13.74
0,
#SCROLL 14.08
0,
#SCROLL 14.42
0,
#SCROLL 14.78
0,
#SCROLL 15.14
0,
#SCROLL 15.51
0,
#SCROLL 15.9
0,
#SCROLL 16.29
0,
#SCROLL 16.69
0,
#SCROLL 17.1
0,
#SCROLL 17.52
0,
#SCROLL 17.95
0,
#SCROLL 18.39
0,
#SCROLL 18.84
0,
#SCROLL 19.3
0,
#SCROLL 19.77
0, //96
#MEASURE 4/4
#SCROLL 20.26
0,
0,
0, //99
#END

COURSE:Normal
LEVEL:5
BALLOON:
SCOREINIT:8070
SCOREDIFF:0
#START
0,
1111,
1110,
1111,
1110,
2222,
2220,
2222,
2220, //9
1122,
1120,
1122,
1120,
2211,
2210,
2211,
2210, //17
1212,
1120,
1212,
1120,
2121,
2210,
2121,
2210, //25
#GOGOSTART
1111,
1111,
1111,
1111,
1122,
1122,
1122,
1122,
1212,
1212, //35
#GOGOEND
#SCROLL 20.26
600000000000000000000000000008000000000000000000, //36
#MEASURE 1/4
#SCROLL 1
0,
#SCROLL 1.21
0,
#SCROLL 1.47
0,
#MEASURE 1/8
#SCROLL 1.79
0,
#SCROLL 1.97
0,
#SCROLL 2.17
0,
#SCROLL 2.4
0,
#SCROLL 2.64
0,
#SCROLL 2.91
0,
#SCROLL 3.2
0,
#SCROLL 3.53
0,
#SCROLL 3.89
0, //48
#MEASURE 1/16
#SCROLL 4.29
0,
#SCROLL 4.5
0,
#SCROLL 4.72
0,
#SCROLL 4.96
0,
#SCROLL 5.21
0,
#SCROLL 5.47
0,
#SCROLL 5.74
0,
#SCROLL 6.02
0,
#SCROLL 6.32
0,
#SCROLL 6.64
0,
#SCROLL 6.97
0,
#SCROLL 7.31
0,
#SCROLL 7.68
0,
#SCROLL 8.06
0,
#SCROLL 8.46
0,
#SCROLL 8.88
0, //64
#MEASURE 1/32
#SCROLL 9.32
0,
#SCROLL 9.55
0,
#SCROLL 9.78
0,
#SCROLL 10.02
0,
#SCROLL 10.27
0,
#SCROLL 10.52
0,
#SCROLL 10.78
0,
#SCROLL 11.05
0,
#SCROLL 11.32
0,
#SCROLL 11.6
0,
#SCROLL 11.88
0,
#SCROLL 12.17
0,
#SCROLL 12.47
0,
#SCROLL 12.78
0,
#SCROLL 13.09
0,
#SCROLL 13.41
0, //80
#SCROLL 13.74
0,
#SCROLL 14.08
0,
#SCROLL 14.42
0,
#SCROLL 14.78
0,
#SCROLL 15.14
0,
#SCROLL 15.51
0,
#SCROLL 15.9
0,
#SCROLL 16.29
0,
#SCROLL 16.69
0,
#SCROLL 17.1
0,
#SCROLL 17.52
0,
#SCROLL 17.95
0,
#SCROLL 18.39
0,
#SCROLL 18.84
0,
#SCROLL 19.3
0,
#SCROLL 19.77
0, //96
#MEASURE 4/4
#SCROLL 20.26
0,
0,
0, //99
#END

COURSE:Easy
LEVEL:4
BALLOON:
SCOREINIT:11900
SCOREDIFF:0
#START
0,
11,
11,
11,
11,
22,
22,
22,
22, //9
12,
12,
12,
12,
21,
21,
21,
21, //17
1110,
11,
1110,
11,
2220,
22,
2220,
22, //25
#GOGOSTART
1110,
1110,
1110,
1110,
2220,
2220,
2220,
2220,
1111,
2222, //35
#GOGOEND
#SCROLL 20.26
600000000000000000000000000008000000000000000000, //36
#MEASURE 1/4
#SCROLL 1
0,
#SCROLL 1.21
0,
#SCROLL 1.47
0,
#MEASURE 1/8
#SCROLL 1.79
0,
#SCROLL 1.97
0,
#SCROLL 2.17
0,
#SCROLL 2.4
0,
#SCROLL 2.64
0,
#SCROLL 2.91
0,
#SCROLL 3.2
0,
#SCROLL 3.53
0,
#SCROLL 3.89
0, //48
#MEASURE 1/16
#SCROLL 4.29
0,
#SCROLL 4.5
0,
#SCROLL 4.72
0,
#SCROLL 4.96
0,
#SCROLL 5.21
0,
#SCROLL 5.47
0,
#SCROLL 5.74
0,
#SCROLL 6.02
0,
#SCROLL 6.32
0,
#SCROLL 6.64
0,
#SCROLL 6.97
0,
#SCROLL 7.31
0,
#SCROLL 7.68
0,
#SCROLL 8.06
0,
#SCROLL 8.46
0,
#SCROLL 8.88
0, //64
#MEASURE 1/32
#SCROLL 9.32
0,
#SCROLL 9.55
0,
#SCROLL 9.78
0,
#SCROLL 10.02
0,
#SCROLL 10.27
0,
#SCROLL 10.52
0,
#SCROLL 10.78
0,
#SCROLL 11.05
0,
#SCROLL 11.32
0,
#SCROLL 11.6
0,
#SCROLL 11.88
0,
#SCROLL 12.17
0,
#SCROLL 12.47
0,
#SCROLL 12.78
0,
#SCROLL 13.09
0,
#SCROLL 13.41
0, //80
#SCROLL 13.74
0,
#SCROLL 14.08
0,
#SCROLL 14.42
0,
#SCROLL 14.78
0,
#SCROLL 15.14
0,
#SCROLL 15.51
0,
#SCROLL 15.9
0,
#SCROLL 16.29
0,
#SCROLL 16.69
0,
#SCROLL 17.1
0,
#SCROLL 17.52
0,
#SCROLL 17.95
0,
#SCROLL 18.39
0,
#SCROLL 18.84
0,
#SCROLL 19.3
0,
#SCROLL 19.77
0, //96
#MEASURE 4/4
#SCROLL 20.26
0,
0,
0, //99
#END
