//TJADB Project
TITLE:Muteki-teki Happiness! (SOS Brigade 5-Person Ver.)
TITLEJA:無敵的ハピネス!(SOS団5人Ver.)
SUBTITLE:--The Haruhi Suzumiya Series
SUBTITLEJA:The Haruhi Suzumiya Series
BPM:185
WAVE:Muteki-teki Happiness.ogg
OFFSET:-0.346
DEMOSTART:31.135

COURSE:Edit
LEVEL:9
BALLOON:
SCOREINIT:1300
SCOREDIFF:0
#START
1111222211221122,
1212112211103000,
3021203000400030,
000400300300222222100
#GOGOSTART
300,
0011202011102011,
1110202011111020,
1011201120112011,
2011211120212000, //8
#GOGOEND
1022201000200010,
0022201000102010,
1011102020222010,
1011102220202020,
1022201020111010,
0010201000111010,
1022202020111010,
1022222211112222,
1002102010021020,
1002102010221022,
1002102010021020,
1002102010221022,
1011101000111010,
0011101000111010,
2212121122112110,
00404020222220
#GOGOSTART
30, //24
100000202020100000202020100000400000400000100100,
200000202020100000202020100000400000400000100100,
2011201120112010,
1121211120212020,
1022102012021020,
1022102210201121,
1111212111112121,
1111211120002110,
100000202020100000202020100000400000400000100100,
200000202020100000202020100000400000400000100100,
2011201120112010,
200200100200100100100100200000202020200000200000,
100222200100100222200100,
100222200100100222200300,
1111221122112120,
2011212010110110, //40
6,
000000000000000000000000000008000000000000000000,
#GOGOEND
3021203000400030,
0040303000101110,
00000441,
0000044
#GOGOSTART
1,
2011201120112010,
1121211120212020, //48
1022102012021020,
1022102210201121,
1111212111112121,
1111211120002110,
100000202020100000202020100000400000400000100100,
200000202020100000202020100000400000400000100100,
2011201120112010,
200200100200100100100100200000202020200000200000,
100222200100100222200100,
100222200100100111200200,
1111201111112011,
1111201120120120,
1222122212121122,
1222122211212210,
0011221122112120,
2011212010110110, //64
6,
000000000000000000000000000008000000000000000000,
#GOGOEND
3021203000400030,
00403030202002
#GOGOSTART
10,
0011202011102011,
1110202011111020,
1011201120112011,
2111201220221030,
0011111000111110,
04430000,
#GOGOEND
0,
0, //76
#END

COURSE:Oni
LEVEL:7
BALLOON:
SCOREINIT:1970
SCOREDIFF:0
#START
0,
0,
33330303,
00303030222020
#GOGOSTART
10,
0010102011102010,
0010101022202220,
1000102011102010,
0010101022204000, //8
#GOGOEND
12210201,
02210111,
01120221,
01120222,
1020201000111010,
0010201000111010,
0022202000111010,
0022202010102020,
10211021,
1000201022102210,
10211021,
1000201022102210,
1020201110202011,
1020201110202010,
01221211,
0440001
#GOGOSTART
2, //24
0022102210404010,
1022102210404011,
1011101020002050,
000000000000000008000000000000200000100000200000,
1021102000201020,
1021102000221011,
1020101110201011,
12110021,
0011201210404010,
1011201210404010,
0012101020002060,
000000000000000008000000000000100100100000200000,
0011102000111020,
0011102000101010,
01221212,
0011101020020020, //40
6,
000000000000000000000000000008000000000000000000,
#GOGOEND
3011103000300030,
03330011,
02211441,
0221144
#GOGOSTART
1,
0011101020002050,
000000000000000008000000000000200000100000200000, //48
1021102000201020,
1021102000221010,
1120101011201010,
1120101040002010,
1011201210404010,
1011201210404010,
0012101020002060,
000000000000000008000000000000100100100000200000,
0011102000111020,
0011102000101000,
1010201110102011,
1022200030030030,
2010201120102011,
2010201120102010,
01221122,
0011101020020020, //64
6,
000000000000000000000000000008000000000000000000,
#GOGOEND
3011103000300030,
0333004
#GOGOSTART
1,
0010102011102010,
0010101022202220,
1000102011102010,
0010101022204010,
0022101000221010,
04430000,
#GOGOEND
0,
0, //76
#END

COURSE:Hard
LEVEL:5
BALLOON:35,16
SCOREINIT:3080
SCOREDIFF:0
#START
0,
0,
33330303,
0333000
#GOGOSTART
1,
00101121,
01112020,
10101121,
01112040, //8
#GOGOEND
10010201,
02210101,
01120221,
01120220,
10210101,
01210111,
02220111,
02220000,
10211020,
10211120,
10211020,
10211120,
9,
0,
0900000000008000,
0000001
#GOGOSTART
1, //24
02121441,
02121441,
01112025,
000000000000000008000000000000100000100000100000,
02220211,
02220111,
02110221,
02220011,
01211441,
01211441,
01212026,
000000000000000008000000000000200000200000200000,
01110222,
01110116,
000000000000000000000000000000000000000008000000,
0010101010010010, //40
6,
000000000000000000000000000008000000000000000000,
#GOGOEND
33330303,
03330001,
00000441,
0000044
#GOGOSTART
1,
01112025,
000000000000000008000000000000100000100000100000, //48
02220211,
02220111,
02110221,
02220011,
01211441,
01211441,
01212026,
000000000000000008000000000000200000200000200000,
01110222,
01110110,
11210121,
0010200030030030,
21210121,
01210126,
000000000000000000000000000000000000000008000000,
0010101010010010, //94
6,
000000000000000000000000000008000000000000000000,
#GOGOEND
33330303,
0333000
#GOGOSTART
4,
00101121,
01112020,
10101121,
01112029,
0,
0009000000800000,
#GOGOEND
0,
0, //76
#END

COURSE:Normal
LEVEL:5
BALLOON:22,11,11,11
SCOREINIT:5880
SCOREDIFF:0
#START
0,
0,
30030303,
0003000
#GOGOSTART
0,
00101001,
01101010,
00101001,
01101010, //8
#GOGOEND
10000001,
00000001,
00020001,
00020000,
10010001,
00010001,
00020001,
00020000,
10011000,
1011,
10011000,
1011,
9,
0,
0900000000008000,
0000000
#GOGOSTART
1, //24
01011001,
01011001,
01011001,
00000101,
02020011,
02020070,
0,
00080001,
01011001,
01011001,
01011006,
000000000000000008000000000000000000000000200000,
01010202,
01110106,
000000000000000000000000000000000000000008000000,
0330, //40
6,
000000000000000000000000000008000000000000000000,
#GOGOEND
30030003,
00030002,
00000002,
0000000
#GOGOSTART
1,
01011001,
00000101, //48
02020011,
02020070,
0,
00080001,
01011001,
01011001,
01011006,
000000000000000008000000000000000000000000200000,
01010202,
01110110,
10110101,
01103000,
20220202,
02220206,
000000000000000000000000000000000000000008000000,
0330, //64
6,
000000000000000000000000000008000000000000000000,
#GOGOEND
30030303,
0003000
#GOGOSTART
0,
00101001,
01101010,
00101001,
01101019,
0,
0009000000800000,
#GOGOEND
0,
0, //76
#END

COURSE:Easy
LEVEL:3
BALLOON:18,9,9,9
SCOREINIT:11390
SCOREDIFF:0
#START
0,
0,
30000003,
0000000
#GOGOSTART
0,
00100001,
0011,
00100001,
0011, //8
#GOGOEND
10000001,
00000001,
00010001,
0,
10000001,
00000001,
00010001,
0,
11,
12,
11,
12,
9,
0,
0900000000008000,
0000000
#GOGOSTART
1, //24
00001001,
00001001,
00001001,
00000001,
00010001,
0007,
0,
00080001,
00001001,
00001001,
00001006,
000000000000000008000000000000000000000000100000,
00010001,
00010006,
000000000000000000000000000000000000000008000000,
03, //40
6,
000000000000000000000000000008000000000000000000,
#GOGOEND
30000003,
00000002,
00000002,
0000000
#GOGOSTART
1,
00001001,
00000001, //48
00010001,
0007,
0,
00080001,
00001001,
00001001,
00001006,
000000000000000008000000000000000000000000100000,
00010001,
00010000,
10010001,
03,
20020002,
00020006,
000000000000000000000000000000000000000008000000,
03, //64
6,
000000000000000000000000000008000000000000000000,
#GOGOEND
30000003,
0000000
#GOGOSTART
0,
00100001,
0011,
00100001,
00001009,
0,
0009000000800000,
#GOGOEND
0,
0, //76
#END
