//TJADB Project
TITLE:World Keeps Turning
TITLEJA:World Keeps Turning
SUBTITLE:--illiomote feat. Ryo Aikawa / WADIVE RECORD
SUBTITLEJA:illiomote feat. 藍川涼 / WADIVE RECORD
BPM:160
WAVE:World Keeps Turning.ogg
OFFSET:-1.877
DEMOSTART:67.310 //SONG_ID:wkturn //Shinuchi:
6010/3420/2060/1380

COURSE:Oni
LEVEL:8
BALLOON:16
SCOREINIT:460,1420
SCOREDIFF:113
#START
500000000000000000000000000008000000200000100000,
01100001,
20110110,
0011,
100000000000000000500000000008000000100000000000,
0011,
100000000000000000500000000008000000200000100000,
00000022,
1001001020020020,
1001001020020020,
3021021020120120,
1021021020120120,
1021021020120120,
1021021020120120,
1021021120120120,
1021021020121120, //16
3021021120120120,
1021021020121120,
1021021120120120,
1021021022221111,
1011201020102010,
2021012010212020,
1011201020102010,
2021012010112010,
1022022010220220,
1022022010222210,
1022022010220220,
500000000008000000200000100000100200100000200000,
1020200220202000,
2020200220202010,
21212121,
2010201020222000, //32
1011201111212000,
2210221111112000,
1021001010210010,
3003003030021020,
1022201010112010,
1011201020120120,
1022201010112010,
1011201010120120,
1022201010112010,
1011201020210120,
1011202210102020,
0000000000101111, //44
#GOGOSTART
1000201010001022,
1010201110002010,
1000201010102011,
20112122,
1000201110102011,
1000102010102022,
1000201011102011,
2022102011101000,
1000201010001022,
1010201110102010,
1000201010102011,
20112111,
1000201110102011,
1010102010102022,
12121111,
700000000000000000000000000000000000000000080000, //60
#GOGOEND
11221022,
10222022,
11221122,
1010202010002220,
11210120,
12022022,
6,
000000000000000000000000000000000008000000000000,
1011
#GOGOSTART
202011112020,
1011201011101000,
1011202011112020,
4434,
1011202022222020,
1020101120221110,
1011202022122020,
1121101020202222, //76
#GOGOEND
1011201020221120,
1022221011112222,
1011201020221220,
1011202222111111,
1010222210102222,
1022221011112222,
1011201010102010,
1010201122112211,
0,
0, //86
#END

COURSE:Hard
LEVEL:6
BALLOON:12,7
SCOREINIT:530,2150
SCOREDIFF:135
#START
500000000000000000000000000008000000000000200000,
01100000,
20110110,
0011,
100000000000000000500000000000000000000008000000,
0011,
10050000,
000000000008000000000000000000000000200000000000,
1001001020000000,
1001001020000000,
3001001020020020,
1001001020020020,
1001001020020020,
1001001020020020,
1001001020020020,
1001001020020020, //16
3001011020020220,
1001011020020220,
1001011020020220,
100000000100000100100000500000000000000008000000,
10212121,
20211020,
10212121,
20221121,
1002002010020020,
1002002010020020,
1002002010020020,
500000000000000000000000000000000008000000000000,
1020200220202000,
2020200220202000,
21212121,
21212120, //32
1010201011102000,
2010201011102000,
1001001010010010,
3003003030000000,
1001201010102010,
1001201020220220,
1001201010102010,
1001201020220220,
1001201010102010,
1001201020220220,
1001202010102020,
00002210, //44
#GOGOSTART
10210010,
1010001110002010,
5,
000000000008000000200000100000100000200000000000,
1000201000102011,
10121120,
10210120,
2010001011101000,
10210010,
1010001110100050,
000000000000000000000000000000000000000008000000,
500000000000000000000008000000100000200000000000,
1000201000102011,
10121120,
10120111,
700000000000000000000000000000000000000000080000, //60
#GOGOEND
10221020,
10222020,
10221020,
10222020,
10210120,
12022020,
6,
000000000000000000000000000000000008000000000000,
11
#GOGOSTART
221022,
1000201011101000,
11221122,
4434,
1010202000222020,
1020002220201000,
1010202000222000,
1011101020202000, //76
#GOGOEND
12212212,
2000201000222000,
12212212,
2000201000111000,
12212212,
2000201000222020,
12212212,
20217000,
0800000000000000,
0, //86
#END

COURSE:Normal
LEVEL:5
BALLOON:9,5
SCOREINIT:670,3610
SCOREDIFF:185
#START
500000000000000000000000000008000000000000100000,
0100,
20020020,
01,
100000000000000000500000000000000000000008000000,
01,
10050000,
000000000008000000000000000000000000000000000000,
12,
12,
30011000,
20022000,
10011000,
20022000,
10011000,
20022000, //16
30011000,
20022000,
10011000,
200000000000000000200000500000000000000008000000,
1212,
10011020,
1212,
10022020,
01,
10002001,
10011002,
500000000000000000000000000000000008000000000000,
20202220,
20202220,
2222,
20202220, //32
10201120,
10201120,
10011001,
30033000,
10201110,
1000000020020000,
10201110,
1000000020020000,
10201110,
1000000020020000,
10201110,
0001, //44
#GOGOSTART
10110010,
11002020,
5,
000000000008000000000000000000000000200000000000,
10010010,
20020020,
10010010,
22011110,
10110010,
11022205,
000000000000000000000000000000000000000008000000,
500000000000000000000008000000000000200000000000,
10110010,
20220020,
10110010,
700000000000000000000000000000000000000000080000, //60
#GOGOEND
10222020,
1222,
10222020,
1222,
10210020,
22022020,
6,
000000000000000000000000000000000008000000000000,
10
#GOGOSTART
222011,
1212,
10222022,
4434,
10220220,
11011000,
10220220,
11011000, //76
#GOGOEND
10202002,
20210000,
10202002,
20210000,
10202202,
20210010,
10202202,
20217000,
0800000000000000,
0, //86
#END

COURSE:Easy
LEVEL:3
BALLOON:5,4
SCOREINIT:670,6480
SCOREDIFF:233
#START
5,
000000000008000000000000000000000000000000000000,
2002,
0,
100000000000000000500000000000000000000008000000,
0,
10050000,
000000000008000000000000000000000000000000000000,
1,
2,
31,
22,
11,
22,
11,
22, //16
31,
22,
11,
24,
1011,
12,
1011,
12,
01,
12,
11,
500000000000000000000000000008000000000000000000,
22,
2220,
22,
2220, //32
1110,
1110,
11,
33,
1011,
12,
1011,
12,
1011,
12,
1011,
0, //44
#GOGOSTART
1001,
0022,
5,
000000000008000000000000000000000000000000000000,
10010010,
0,
10010010,
0,
1001,
00001005,
000000000000000000000000000000000000000008000000,
500000000000000000000008000000000000000000000000,
10010010,
0,
10010010,
700000000000000000000000000000080000000000000000, //60
#GOGOEND
1202,
1202,
1202,
1202,
10010020,
02000000,
6,
000000000000000000000000000008000000000000000000,
1
#GOGOSTART
202,
1110,
1202,
4440,
10010010,
01002000,
10010010,
02000000, //76
#GOGOEND
1110,
10010000,
1110,
100000000000000000500000000000000008000000000000,
1110,
20020000,
1110,
2000007000000008,
0,
0, //86
#END
