//TJADB Project
TITLE:Ryuu to Kokuen no Himegimi
TITLEJA:竜と黒炎の姫君
SUBTITLE:--Seifu Meigetsu [Drop × Yura Hatsuki] feat. Hisui
SUBTITLEJA:
BPM:306
WAVE:Ryuu to Kokuen no Himegimi.ogg
OFFSET:-0.889
DEMOSTART:68.299 //Shinuchi:
5940/4050/2000/1490/1060

COURSE:Edit
LEVEL:10
BALLOON:
SCOREINIT:380,1070
SCOREDIFF:95
#START
#MEASURE 8/4
#SCROLL 0.75
3000200030020020,
500000000000000000000008000000000000200000200000500000000000000000000008000000000000200020002000,
1002002030002000,
3002002022222222, //4
#GOGOSTART
1020112011210120,
100100200100000100200200100100200100000100202020,
1121221212212211,
20201010202010102220101022201010,
1012012010120120,
#GOGOEND
00000000000000000000000000112000, //10
1020112011210120,
1020112211211120,
1120112011211120,
10102020101020201120102010201020,
1020112011210120,
1020112211211122,
1221221211212212,
100100100000200000100100100000200000100000200000500000000000000000000000000008000000000000000000, //18
1020112011210120,
1020112211211120,
1120112011211120,
10102020101020201120102010201020,
100000101010100100100100200100100200100100200100,
500000000000000000000008000000000000200000100000100000100000200010001000100000100000200000200000,
1221221211212212,
100100100000200000100100100000200000100000200000500000000000000000000000000008000000000000000000, //26
1111201111201120,
1111201111201120,
1111202111201120,
10101010200020101010202011202010,
1111201111201120,
1111201111201120,
1111202111201121,
22201010202010102220101020201010, //34
100000202020200000101010200000100200000100200000,
100000000000000000101010100100100100200200100100,
100000202020200000101010200000100200000100200000,
100200100200100200100200100100101010200200200200,
2111211121112211,
20101020101020101000101020201111,
20001020001020001011101010101010,
200000100200000100200000100010101000100010001000,
20000000000000002000001120000000, //43
#GOGOSTART
1020112011210120,
10102010101020201010201011202010,
1020112211210121,
10102010101022201010201022102000,
1221012112210121,
1122112211221222,
10102010001020001110201000102000,
11102010001020001110201022201110, //51
1020112011210120,
10102010101020201010201011202010,
1021112212210121,
10102010101022201010201022112000,
100000000000000000100100200000000000000000000000200000002000000020000000100000001000000010000000,
222222111111222111200000,
300000000000000000300000000000000000300000000000600000000000000000000008000000000000200000200000,
1021021040040040, //59
1020112011210120,
100100200100000100200200100100200100000100202020,
1221221211212210,
100100100000200000100100100000200000100000200000100010001000200000100000200000200000100000100000,
1020112011210120,
100100200100000100200200100100200100000100202020,
1121221212212211,
20201010202010102220101022201010, //67
10001020001020001000112000102000,
#GOGOEND
100000000000111111200000,
222222111111222222111111,
1333, //71
#MEASURE 4/4
4,
#BARLINEOFF
0,
0,
0,
0,
0,
0,
0, //79
#END

COURSE:Oni
LEVEL:8
BALLOON:6,17,18,5,3,3,3,3
SCOREINIT:500,1740
SCOREDIFF:120
#START
#MEASURE 8/4
#SCROLL 0.5
33,
33,
33,
3000000022222222, //4
#GOGOSTART
1020112011210120,
1021012110210122,
1020112010201120,
2211221122112210,
3003003040040040,
#GOGOEND
0, //10
1001001110010011,
1001001110210120,
1020112010201120,
1020112012121212,
1001001110010011,
1001001110210120,
1121012110004000,
300000000000000000300000000000000000300000000000600000000000000000000000000008000000000000000000, //18
1001001110010011,
1001001110210120,
1020112010201120,
1020112012121212,
1003003040040040,
600000000000000000000008000000000000100000100000100000000000200000100000000000100000200000000000,
1121012112104000,
3003003070000800, //26
1010001110102010,
1010001110102010,
1010001110102010,
1010001011221122,
1010001110102011,
1010001110102011,
1010001110102011,
2211221122112211, //34
500000000000000000000000000000000008000000000000400000000000000000400000000000000000400000000000,
70000008,
500000000000000000000000000000000008000000000000400000000000000000400000000000000000400000000000,
70000008,
2011201020112010,
2011221020111120,
300000000000000000300000000000000000300000000000600000000000000000000000000008000000000000000000,
400000000000000000400000000000000000400000000000600000000000000000000000000000000000000000000008,
0034, //43
#GOGOSTART
1020112011210120,
1021012010201122,
1020112011210120,
100000000000200000100000100000100000200000000000500000000000000000000000000008000000000000000000,
1112021011120210,
1022102210221020,
100000100000200000100000100000200000100000000000500000000000000000000008000000000000100000200000,
1121121070008000, //51
1020112011210120,
1021012010201122,
1021012012210120,
500000000000000000000008000000000000200000200000500000000000000000000000000008000000000000000000,
2212201040040040,
1021201210212000,
300000000000000000300000000000000000300000000000600000000000000000000008000000000000200000200000,
1003003040040040, //59
1020112011210120,
1021012110210122,
1022102011201020,
1121012112104000,
1020112011210120,
1021012110210122,
1022112011221120,
2211221122112210, //67
3003003040040040,
#GOGOEND
1,
70000800700008007000080070000800,
1333, //71
#MEASURE 4/4
4,
#BARLINEOFF
0,
0,
0,
0,
0,
0,
0, //79
#END

COURSE:Hard
LEVEL:7
BALLOON:6,5,13,13,14,4,15
SCOREINIT:550,2520
SCOREDIFF:138
#START
#MEASURE 8/4
#SCROLL 0.5
33,
33,
33,
30007008, //4
#GOGOSTART
1020102010010020,
500000000000000000000008000000000000200000200000500000000000000000000008000000000000200000000000,
2011102020111020,
1110111011101110,
3003003040040040,
#GOGOEND
0, //10
1001001010010010,
1001001110010020,
1020111010201110,
100000000000200000000000100000000000200000000000500000000000000000000000000008000000000000000000,
1001001010010010,
1001001110010010,
3003004030004000,
300000000000000000300000000000000000300000000000600000000000000000000000000008000000000000000000, //18
1001001010010010,
1001001110010020,
1020111010201110,
100000000000200000000000100000000000200000000000500000000000000000000000000008000000000000000000,
3003003040040040,
600000000000000000000008000000000000100000100000100000000000000000100000000000000000100000000000,
4004004030004000,
3003003070000800, //26
11011020,
11011020,
11011020,
70000008,
11011020,
1010001020020020,
11011020,
1110111022202220, //34
500000000000000000000000000000000008000000000000400000000000000000400000000000000000400000000000,
70000008,
500000000000000000000000000000000008000000000000400000000000000000400000000000000000400000000000,
70000008,
11211121,
2011102000111020,
300000000000000000300000000000000000300000000000600000000000000000000000000008000000000000000000,
400000000000000000400000000000000000400000000000600000000000000000000000000000000000000000000008,
0034, //43
#GOGOSTART
1020112010201120,
1020112010201110,
1020112010201120,
100000000000200000000000100000100000200000000000500000000000000000000000000008000000000000000000,
1001002010010020,
1011101110111000,
300000000000000000300000000000000000300000000000500000000000000000000008000000000000200000200000,
2004004070008000, //51
1020112010201120,
1020112010201110,
1020112010201120,
500000000000000000000008000000000000200000200000500000000000000000000000000008000000000000000000,
1001001020020020,
1011101110112000,
300000000000000000300000000000000000300000000000600000000000000000000008000000000000100000100000,
1003003040040040, //59
6,
000000000000000000000000000008000000000000000000000000000000000000000000000000000000100000100000,
1020102011102000,
1001002011104000,
1020102010010020,
500000000000000000000008000000000000200000200000500000000000000000000008000000000000200000000000,
2011102020111020,
2220111022201110, //67
3003003040040040,
#GOGOEND
0,
7,
8333,
#MEASURE 4/4
4,
#BARLINEOFF
0,
0,
0,
0,
0,
0,
0, //79
#END

COURSE:Normal
LEVEL:6
BALLOON:11,7,7,8,10,9,25,10
SCOREINIT:890,5290
SCOREDIFF:255
#START
#MEASURE 8/4
#SCROLL 0.5
33,
33,
33,
33, //4
#GOGOSTART
1000200010010010,
500000000000000000000000000000000000000000000000000000000000000000000008000000000000000000000000,
11102220,
500000000000000000000000000000000000000000000000000000000000000000000008000000000000000000000000,
3003003030030030,
#GOGOEND
0, //10
1001001010010010,
1000000010010010,
1212,
500000000000000000000000000000000000000000000000000000000000000000000008000000000000000000000000,
1001001010010010,
1000000010010000,
1001001010004000,
600000000000000000000000000000000000000000000000000000000000000000000008000000000000000000000000, //18
1001001010010010,
1000000010010010,
1212,
500000000000000000000000000000000000000000000000000000000000000000000008000000000000000000000000,
7,
0080000010010000,
1001001010004000,
600000000000000000000000000000000000000000000000000000000000000000000008000000000000000000000000, //26
10011020,
10011020,
10011020,
700000000000000000000000000000000000000000000000000000000000000000000008000000000000000000000000,
10011020,
10011020,
10011020,
700000000000000000000000000000000000000000000000000000000000000000000008000000000000000000000000, //34
3000000040040040,
500000000000000000000000000000000000000000000000000000000000000000000008000000000000000000000000,
3000000040040040,
500000000000000000000000000000000000000000000000000000000000000000000008000000000000000000000000,
1111,
1001001000202020,
700000000000000000000000000000000000000000000000000000000000000000000008000000000000000000000000,
7,
8034, //43
#GOGOSTART
1000001010010010,
1001001010002000,
1000001010010020,
500000000000000000000000000000000000000000000000000000000000000000000008000000000000000000000000,
1001000020020000,
1122,
500000000000000000000000000000000000000000000000000000000008000000000000000000000000700000000000,
0008, //51
1000001010010010,
1001001010002000,
1001001010020050,
000000000000000000000000000000000000000000000000000000000000000000000008000000000000000000000000,
1001000020020000,
3344,
600000000000000000000000000000000000000000000000000000000008000000000000000000000000900000000000,
0, //59
000000000000000009000000,
000000000000000000000000000000080000000000000000000000000000000000000000000000000000000000000000,
0,
0,
1000200010010010,
500000000000000000000000000000000000000000000000000000000000000000000008000000000000000000000000,
11102220,
500000000000000000000000000000000000000000000000000000000000000000000008000000000000000000000000, //67
3003003030030030,
#GOGOEND
0,
7,
8333, //71
#MEASURE 4/4
4,
#BARLINEOFF
0,
0,
0,
0,
0,
0,
0, //79
#END

COURSE:Easy
LEVEL:4
BALLOON:9,5,5,6,8,6,20,7
SCOREINIT:710,7340
SCOREDIFF:183
#START
#BARLINEOFF
#MEASURE 8/4
#SCROLL 0.5
0,
0,
0,
0, //4
#BARLINEON
#GOGOSTART
1111,
500000000000000000000000000000000000000000000000000000000008000000000000000000000000000000000000,
11101110,
3333,
600000000000000000000000000000000000000000000000000000000000000000000000000000000000000008000000,//9
#GOGOEND
0, //10
10011001,
10011000,
1122,
500000000000000000000000000000000000000000000000000000000008000000000000000000000000000000000000,
10011001,
10011000,
10011020,
600000000000000000000000000000000000000000000000000000000008000000000000000000000000000000000000, //18
10011001,
10011000,
1122,
500000000000000000000000000000000000000000000000000000000000000000000008000000000000000000000000,
7,
08001000,
10011020,
600000000000000000000000000000000000000000000000000000000008000000000000000000000000000000000000, //26
1011,
1011,
12,
70000800,
1011,
1011,
12,
70000800, //34
34,
500000000000000000000000000000000000000000000000000000000008000000000000000000000000000000000000,
34,
500000000000000000000000000000000000000000000000000000000008000000000000000000000000000000000000,
1111,
1111,
700000000000000000000000000000000000000000000000000000000000000000000008000000000000000000000000,
7,
8, //43
#GOGOSTART
10101011,
1120,
1112,
500000000000000000000000000000000000000000000000000000000008000000000000000000000000000000000000,
11,
1122,
500000000000000000000000000000000000000000000000000000000008000000000000000000000000700000000000,
00000800, //51
10101011,
1120,
1112,
500000000000000000000000000000000000000000000000000000000008000000000000000000000000000000000000,
11,
4444,
600000000000000000000000000000000000000000000000000000000008000000000000000000000000900000000000,
0, //59
000000000000000009000000,
000000000000000000000000000000080000000000000000000000000000000000000000000000000000000000000000,
0,
0,
1111,
500000000000000000000000000000000000000000000000000000000008000000000000000000000000000000000000,
11101110,
3333, //67
600000000000000000000000000000000000000000000000000000000000000000000000000000000000000008000000,
#GOGOEND
0,
70000008,
0333, //71
#MEASURE 4/4
3,
#BARLINEOFF
0,
0,
0,
0,
0,
0,
0, //79
#END
