//TJADB Project
TITLE:Garakuta Doll Play
TITLEJA:Garakuta Doll Play
SUBTITLE:--t+pazolite/maimai
SUBTITLEJA:t+pazolite 「maimai でらっくす」より
BPM:256
WAVE:Garakuta Doll Play.ogg
OFFSET:-1.980
DEMOSTART:7.125 //shinuchi:
2820/1840/1420/1210/980

COURSE:Edit
LEVEL:10
BALLOON:2,2,2,2,2,2,2,2
SCOREINIT:360,1390
SCOREDIFF:85
#START
0,
00002222,
30202202,
00202222,
10202202,
0022, //6
#GOGOSTART
30102212,
10101212,
30102212,
1000100020112010, //10
3011101020201020,
3011101020202120,
3011101020211020,
#GOGOEND
500008000000500008000000500008000000500008000000, //14
#GOGOSTART
3333,
30323011,
30323030,
#GOGOEND
1110300070803000, //18
#GOGOSTART
3333,
3012102030005000,
000000000000000000000000000000000008000000000000,
200000000000500008000000500008000000500008000000, //22
#GOGOEND
78034030,
30324030,
#GOGOSTART
30323030,
#GOGOEND
1011100070803000, //26
#GOGOSTART
3333,
3011201030002050,
#GOGOEND
000000000008000000100000200000100000100000100000,
200000100000500008000000200000100000500008000000, //30
#GOGOSTART
30307830,
#GOGOEND
3000111030001010,
#GOGOSTART
30307830,
#GOGOEND
30323011, //34
#GOGOSTART
30307830,
#GOGOEND
30113025,
000000000008000000200000100000200000100000000000,
300000000000300000000000500008000000400000000000, //38
#GOGOSTART
30307830,
#GOGOEND
3000111030001010,
#GOGOSTART
30307830,
#GOGOEND
30323011, //42
#GOGOSTART
30301111,
3000300011111010,
#GOGOEND
40040403,
0122, //46
#SCROLL 0.75
1200002220002210,
0020102010211000,
32212011,
1020102120001220, //50
3010222020102210,
1010122020101220,
1000222020201010,
02121210, //54
#GOGOSTART
30020030,
#GOGOEND
30030030,
#GOGOSTART
3222,
#GOGOEND
1200001200001000, //58
#GOGOSTART
3000220030001010,
30203011,
3333,
#GOGOEND
500008000000500008000000500008000000500008000000, //62
#SCROLL 1.1
#GOGOSTART
30323030,
32301230,
30323030,
1110101030003000, //66
30323030,
1110101030001011,
10323030,
#GOGOEND
500008000000500008000000500008000000500008000000, //70
#GOGOSTART
30323030,
32303011,
30323030,
1011101030003000, //74
30323030,
1011101010201020,
1010222011222112,
1212121020002000, //78
#GOGOEND
#SCROLL 1
30002202,
00002222,
20002202,
0022, //82
20002202,
00002222,
20002202,
0022, //86
30101212,
10121010,
30121212,
10121202, //90
30101212,
30121012,
32123212,
3340, //94
#SCROLL 1.15
#GOGOSTART
30303232,
30323011,
30323232,
3000302030001110, //98
30303232,
30323033,
02223232,
#GOGOEND
3444, //102
#GOGOSTART
30303232,
30323030,
30323232,
3000302010100011,
10303232,
30323031,
02223232,
#GOGOEND
3340, //110
#SCROLL 1.2
#GOGOSTART
32232232,
23223232,
32232232,
2030202030202011, //114
12232232,
23223232,
32232232,
23223030, //118
33433343,
3030403030111110,
33433343,
3030403030111110, //122
33433343,
1111211122112210,
02221212,
500008000000500008000000500008000000500008000000, //126
#GOGOEND
3,
0,
0,
0, //130
#END

COURSE:Oni
LEVEL:9
BALLOON:
SCOREINIT:380,1340
SCOREDIFF:98
#START
0,
00002222,
20002202,
00002222,
20002202,
0011, //6
#GOGOSTART
30221121,
20221121,
10221121,
20223030,
30221121,
30221121,
1010222010102220,
#GOGOEND
12202020, //14
#GOGOSTART
30111111,
10112212,
10111111,
#GOGOEND
1022201020201000,
#GOGOSTART
30111111,
1011101020001020,
00021210,
11212120, //22
#GOGOEND
30012010,
1120,
#GOGOSTART
30111111,
#GOGOEND
1011101020201000,
#GOGOSTART
30111111,
1011101020002010,
#GOGOEND
02220222,
2010201020111020, //30
#GOGOSTART
30112012,
#GOGOEND
12112210,
#GOGOSTART
30112012,
#GOGOEND
12221120,
#GOGOSTART
30112012,
#GOGOEND
12112210,
21210210,
1010202011102000, //38
#GOGOSTART
30112012,
#GOGOEND
12112210,
#GOGOSTART
30112012,
#GOGOEND
12221120,
#GOGOSTART
10201120,
10201120,
#GOGOEND
30340403,
0322, //46
#SCROLL 0.75
30012021,
02102210,
30012021,
02102210,
30012021,
02102210,
30012021,
02102210, //54
#GOGOSTART
3001,
#GOGOEND
30030030,
#GOGOSTART
3001,
#GOGOEND
30030030,
#GOGOSTART
30001011,
30001011,
3131,
#GOGOEND
0, //62
#SCROLL 1
#GOGOSTART
30121111,
11221121,
30121111,
1011202010102000,
30121111,
11221121,
30121112,
#GOGOEND
1, //70
#GOGOSTART
30121111,
11221121,
30121111,
1011202010102000,
30121111,
11211212,
1011101020222020,
1110100020002000, //78
#GOGOEND
30002202,
00002222,
20002202,
0022,
20002202,
00002222,
20002202,
0022, //86
30202222,
20221020,
30222222,
20221202,
30202222,
30222022,
32223222,
3, //94
#GOGOSTART
30121111,
12111212,
10111111,
1020101010201011,
10121111,
12111211,
01111111,
#GOGOEND
3444, //102
#GOGOSTART
30121111,
12111212,
30111111,
12111101,
10121111,
12111211,
01111111,
#GOGOEND
3, //110
#GOGOSTART
11122211,
12223030,
11122211,
12223030,
11122211,
12223030,
11122211,
12223030, //118
11111111,
1010101010222020,
11111111,
1010101010222020,
34343434,
3040304010222010,
02221122,
500000000000000000000000000000000000000008000000, //126
#GOGOEND
#SCROLL 3
3,
0,
0,
0, //130
#END

COURSE:Hard
LEVEL:8
BALLOON:
SCOREINIT:360,1750
SCOREDIFF:100
#START
#SCROLL 0.78
0,
00002222,
20002202,
00002222,
20002202,
0022, //6
#GOGOSTART
30002202,
00002222,
30002202,
0022,
30002202,
30002222,
30003202,
#GOGOEND
500000000000000000000000000008000000000000000000, //14
#GOGOSTART
3333,
30303011,
1333,
#GOGOEND
100000100000100000000000600000000008000000000000,
#GOGOSTART
3333,
11101030,
00011110,
1122, //22
#GOGOEND
30030030,
3303,
#GOGOSTART
3333,
#GOGOEND
100000100000100000000000600000000008000000000000,
#GOGOSTART
3333,
11101050,
#GOGOEND
000008000000000000200000100000200000200000200000,
22122210, //30
#GOGOSTART
3333,
#GOGOEND
30111011,
#GOGOSTART
1333,
#GOGOEND
30303011,
#GOGOSTART
1333,
#GOGOEND
30111050,
000008000000000000100000100000100000100000000000,
1122, //38
#GOGOSTART
3333,
#GOGOEND
30111011,
#GOGOSTART
1333,
#GOGOEND
30303011,
#GOGOSTART
10301111,
10301110,
#GOGOEND
40040403,
0122, //46
30002001,
0121,
30002001,
0121,
30002001,
0121,
30002001,
0121, //54
#GOGOSTART
3003,
#GOGOEND
30030030,
#GOGOSTART
3003,
#GOGOEND
30030030,
#GOGOSTART
30003011,
10003011,
1333,
#GOGOEND
500000000000000000000000000000000008000000000000,//62
#GOGOSTART
30121030,
12103030,
30121030,
11111030,
30121030,
11111012,
10121030,
#GOGOEND
500000000000000000000000000000000008000000000000, //70
#GOGOSTART
30121030,
12103012,
10121030,
11111030,
30121030,
12102020,
11102220,
500000000008000000000000200000000000200000000000, //78
#GOGOEND
20002202,
00002222,
20002202,
0022,
20002202,
00002222,
20002202,
0022, //86
30202222,
20222020,
30222222,
20222202,
30202222,
30222022,
32223222,
3, //94
#GOGOSTART
30302222,
10221030,
30222222,
10221022,
10302222,
10221022,
02222222,
#GOGOEND
1444, //102
#GOGOSTART
30302222,
10221030,
30222222,
10222202,
10302222,
10221022,
02222222,
#GOGOEND
1, //110
#GOGOSTART
12012012,
01201212,
12012012,
01201212,
12012012,
01201212,
12012012,
000000100000200000000000500000000008000000000000, //118
32223222,
32223222,
32223222,
32223222,
12121212,
12121022,
02222222,
500000000000000000000000000000000008000000000000, //126
#GOGOEND
3,
0,
0,
0, //130
#END

COURSE:Normal
LEVEL:6
BALLOON:
SCOREINIT:340,2380
SCOREDIFF:93
#START
#SCROLL 0.78
0,
00002220,
20002202,
00002220,
20002202,
0022, //6
#GOGOSTART
30002202,
00002220,
30002202,
0022,
30002220,
30002220,
33,
#GOGOEND
500000000000000000000000000008000000000000000000, //14
#GOGOSTART
1212,
10220000,
1212,
#GOGOEND
000000000000300000000000600000000008000000000000,
#GOGOSTART
1212,
10221000,
20202220,
2, //22
#GOGOEND
500000000000000000000008000000000000000000000000,
10220040,
#GOGOSTART
1212,
#GOGOEND
000000000000300000000000600000000008000000000000,
#GOGOSTART
1212,
10220000,
#GOGOEND
500000000000000000000000000000000008000000000000,
22202220, //30
#GOGOSTART
000000000000300000000000600000000008000000000000,
#GOGOEND
1212,
#GOGOSTART
000000000000300000000000600000000008000000000000,
#GOGOEND
1210,
#GOGOSTART
000000000000300000000000600000000008000000000000,
#GOGOEND
10220000,
20202220,
2, //38
#GOGOSTART
000000000000300000000000600000000008000000000000,
#GOGOEND
1212,
#GOGOSTART
000000000000300000000000600000000008000000000000,
#GOGOEND
2220,
#GOGOSTART
3434,
3434,
#GOGOEND
40040403,
0022, //46
30002001,
0121,
30002001,
0121,
30002001,
0121,
30002001,
0121, //54
#GOGOSTART
10020020,
#GOGOEND
30030030,
#GOGOSTART
1222,
#GOGOEND
30030030,
#GOGOSTART
1222,
1200,
3333,
#GOGOEND
500000000000000000000000000000000008000000000000, //62
#GOGOSTART
30020020,
3434,
30020020,
3434,
30020020,
3434,
30020020,
#GOGOEND
500000000000000000000000000000000008000000000000, //70
#GOGOSTART
30020020,
3434,
30020020,
3434,
30020020,
3434,
5,
000000000000000000000000000008000000000000000000, //78
#GOGOEND
20002202,
00002220,
20002202,
0022,
20002202,
00002220,
20002202,
0022, //86
30101110,
1111,
30101110,
1110,
3111,
3111,
33,
3, //94
#GOGOSTART
30302220,
30222030,
30202220,
30222011,
10302220,
30222022,
02202220,
#GOGOEND
3444, //102
#GOGOSTART
30302220,
30222030,
30202220,
30220201,
10302220,
30222022,
02202220,
#GOGOEND
3, //110
#GOGOSTART
11011011,
01103000,
11011011,
01103000,
11011011,
01103000,
11011011,
01103000, //118
3232,
3232,
3232,
3232,
3333,
30303022,
02201010,
500000000000000000000000000000000008000000000000, //126
#GOGOEND
3,
0,
0,
0, //130
#END

COURSE:Easy
LEVEL:4
BALLOON:4,4,4,4,4
SCOREINIT:310,5220
SCOREDIFF:85
#START
#SCROLL 0.78
0,
0,
22,
0,
22,
0, //6
#GOGOSTART
3,
0,
3,
0,
3,
3,
33,
#GOGOEND
500000000000000000000000000008000000000000000000, //14
#GOGOSTART
33,
33,
33,
#GOGOEND
500000000000000000000000000008000000000000000000,
#GOGOSTART
33,
3035,
000000000000000000000000000008000000000000000000,
11, //22
#GOGOEND
3,
33,
#GOGOSTART
33,
#GOGOEND
500000000000000000000000000008000000000000000000,
#GOGOSTART
33,
3035,
#GOGOEND
000000000000000000000000000008000000000000000000,
3, //30
#GOGOSTART
7008,
#GOGOEND
11,
#GOGOSTART
7008,
#GOGOEND
11,
#GOGOSTART
7008,
#GOGOEND
1015,
000000000000000000000000000008000000000000000000,
3, //38
#GOGOSTART
7008,
#GOGOEND
11,
#GOGOSTART
7008,
#GOGOEND
11,
#GOGOSTART
33,
33,
#GOGOEND
30040403,
0, //46
30002001,
02,
30002001,
02,
30002001,
02,
30002001,
02, //54
#GOGOSTART
1,
#GOGOEND
30030030,
#GOGOSTART
1,
#GOGOEND
30030030,
#GOGOSTART
1,
3,
33,
#GOGOEND
500000000000000000000000000008000000000000000000,//62
#GOGOSTART
33,
3011,
33,
3,
33,
3011,
33,
#GOGOEND
500000000000000000000000000008000000000000000000, //70
#GOGOSTART
33,
3011,
33,
3,
33,
33,
5,
000000000000000000000000000008000000000000000000, //78
#GOGOEND
3,
0,
3,
0,
3,
0,
3,
0, //86
3,
33,
3,
33,
33,
33,
33,
500000000000000000000000000008000000000000000000, //94
#GOGOSTART
33,
3011,
33,
3,
33,
30003005,
000000000000000000000000000000000000000000000008,
#GOGOEND
0, //102
#GOGOSTART
33,
3011,
33,
3,
33,
30003005,
000000000000000000000000000000000000000000000008,
#GOGOEND
0, //110
#GOGOSTART
3330,
3330,
3330,
3330,
3330,
3330,
33,
3330, //118
3330,
3330,
3330,
3330,
3333,
3000300030003005,
0,
000000000000000000000000000008000000000000000000, //126
#GOGOEND
3,
0,
0,
0, //130
#END
