//TJADB Project
TITLE:DON’T CUT
TITLEJA:DON'T CUT
SUBTITLE:--Keiichi Okabe feat. Nami Nakagawa
BPM:170
OFFSET:-1.536
WAVE:DON’T CUT.ogg
DEMOSTART:18.430

COURSE:Edit
LEVEL:9
BALLOON:30,7,7,7,10,7,7
SCOREINIT:370
SCOREDIFF:90
#START
33000033,
,
33000033,
0000000011111000,
1110201110201110,
2012201120221010,
1110201110201110,
2012201012221111,
1022102012021020,
1022102012021020,
1222103000211030,
000000100200100000600000000000000008000000000000,
1012201012201020,
1112201110221020,
1011121011121000,
1111100011111000,
1012201012201020,
1112201110221020,
1011121012111000,
1111222011122000,
5,
000000000000000000000000000000000008000000000000,
1011201020102210,
0011102022101000,
1010201120102210,
0022101020111000,
7,
0008,//28
#GOGOSTART
1021101112211011,
1021102110211120,
1021101112211011,
1021102110211212,
1022102010211021,
1021101030203020,
3000111040104011,
7000802110111222,
1021101112211011,
1021102110211120,
1021101112211011,
1021102110211212,
1022102010211021,
1021101011111030,
3000111022222030,
7878,//44
#GOGOEND
5,
000000000000000000000000000000000000000000000008,
,
2222,
1120201120201120,
2022101022221111,
1021103000121030,
000000100100100000600000000000000008000000000000,
1112021110201220,
1112021120221020,
1011011011121020,
1112021011121000,
1112021110201220,
1112021120221020,
1122112211121120,
33003300,
5,
000000000000000000000000000000000008000000000000,
1011201020122010,
0011102020101000,
1011201020122010,
0022101022101000,
7,
8,
2020200220202000,
2022202020202000,
2022202020022000,
200200200200202020202020,
1020202020222020,
1020202022022020,
1020220210222220,
1222122212221212,//76
#GOGOSTART
1021101112211011,
1021102110211120,
1021101112211011,
1021102110211212,
1022102010211021,
1021101011221122,
1000111022111212,
7878,
1211121000121110,
0012111000000022,
1111112211111111,
13000000,//88
#GOGOEND
#END

COURSE:Oni
LEVEL:8
SCOREINIT:410
SCOREDIFF:100
#START
33000033,
,
33000033,
0000000011111000,
2011102011102011,
2011102011102010,
2011102011102011,
2011102011101110,
1020112010201120,
1020112010201110,
11220122,
000000100000200000200000500000000000000008000000,
1011101011101011,
1011101011101010,
1011101011101000,
1010111010101110,
1011101011101011,
1011101011101010,
1011101011101000,
1111100011111000,
11201020,
1212,
10201021,
00202211,
11201020,
1212,
3,
1111101111104000,//28
#GOGOSTART
1020112010201120,
1020112010201120,
1020112010201120,
1020112010201120,
1020112010201120,
1020112010201120,
1020112010201120,
1121112111211010,
1020112010201120,
1020112010201120,
1020112010201120,
1020112010201120,
1020112010201120,
1020112010201120,
1020112010201120,
1110201110201110,//44
#GOGOEND
33000000,
33000000,
33000000,
20202120,
2011102011102011,
2011102011102011,
11220122,
01220000,
1011101011101011,
1011101011101010,
1011101011101010,
1010111010101110,
1011101011101011,
1011101011101010,
1011101011101010,
33003300,
1011201011102011,
1010211010112010,
1011201011102011,
1010211020212010,
1011201011102011,
1010211010112010,
3,
1111101111104000,
2022,
2022,
2022,
2,
2022,
20001111,
11111111,
10003333,//76
#GOGOSTART
2011201120112011,
2011201120112011,
2011201120112011,
2011201120112011,
2011201120112011,
2011201120112011,
2011201120112011,
2211221122103000,
11220122,
01220000,
500000000000000000000000000000000000000008000000,
33000000,//88
#GOGOEND
#END

COURSE:Hard
LEVEL:8
BALLOON:20,10
SCOREINIT:490
SCOREDIFF:100
#START
33000033,
,
33000033,
0000000011111000,
1110001110001110,
0011100011101000,
1110001110001110,
0011101110001000,
1020102012021000,
1020102012021000,
11130113,
000000100000100000600000000000000008000000000000,
1011102011102000,
1011102011101000,
1011102011102000,
1111100011111000,
1011102011102000,
1011102011101000,
1011102011102000,
2222200022222000,
5,
000000000000000000000000000000000008000000000000,
11212121,
01221220,
11212121,
02112110,
7,
0008,//28
#GOGOSTART
1011101011101000,
1011201120112000,
1011101022202000,
1011201120112000,
1022201010222010,
10003232,
30004141,
43,
1011101011101000,
1011201120112000,
1011101022202000,
1011201120112000,
1022201010222010,
1000000011111030,
3000000011111030,
33,//44
#GOGOEND
5,
000000000000000000000000000000000000000000000008,
,
2222,
1020102012021000,
1020102012021000,
11130113,
000000100000100000600000000000000008000000000000,
1110001110201000,
1110001110202000,
1110111011101000,
2222200022222000,
1110001110201000,
1110001110202000,
1010101011111000,
33003300,
5,
000000000000000000000000000000000008000000000000,
11212121,
01121120,
11212121,
02112110,
7,
8,
20202220,
2022202020002000,
22202020,
200200200000202020200000,
1222,
12202220,
12221222,
12121210,//76
#GOGOSTART
1022201022201000,
1011201120112000,
1022201022201000,
1011201120112000,
1022202010222020,
1000000011111000,
3000000011111000,
33,
5,
,
000000000000000000000000000000000008000000000000,
33000000,//88
#GOGOEND
,
,
#END

COURSE:Normal
LEVEL:7
BALLOON:12,10
SCOREINIT:660
SCOREDIFF:150
#START
33000033,
,
33000033,
,
11011010,
1110,
11011010,
1110,
10101110,
10101110,
10110111,
03330000,
11101110,
11111000,
22202220,
1110,
11101110,
11111000,
22202220,
1110,
5,
000000000000000000000000000000000000000000000008,
,
,
11,
11,
7,
0008,//28
#GOGOSTART
11101110,
1022,
11101110,
1,
11101110,
1033,
3044,
43,
11102220,
1022,
11102220,
1,
11101110,
1033,
3044,
44,//44
#GOGOEND
5,
000000000000000000000000000000000000000000000008,
,
22,
10101110,
10102220,
10110111,
03330000,
11201120,
11111000,
11201120,
1110,
11201120,
11111000,
11201120,
11001100,
5,
000000000000000000000000000000000000000000000008,
,
,
12,
22,
7,
8,
2022,
2022,
22,
2,
1222,
1222,
1212,
12201220,//76
#GOGOSTART
11101110,
1122,
11101110,
1122,
11101110,
10003033,
30004044,
44,
5,
,
000000000000000000000000000000000008000000000000,
33000000,//88
#GOGOEND
,
,
#END

COURSE:Easy
LEVEL:4
BALLOON:8,8
SCOREINIT:480
SCOREDIFF:100
#START
3003,
,
3003,
,
10010010,
0110,
10010010,
0110,
1111,
1110,
11,
33,
10101110,
1,
10101110,
1,
10101110,
1,
10101110,
11,
5,
000000000000000000000000000000000000000000000008,
,
,
11,
11,
7,
8,//28
#GOGOSTART
10101110,
1,
10101110,
1,
10101110,
1033,
3044,
43,
10101110,
1,
10101110,
1,
10101110,
1033,
3044,
44,//44
#GOGOEND
5,
000000000000000000000000000000000000000000000008,
,
22,
1111,
11,
11,
33,
10102220,
1,
10102220,
11,
10102220,
1,
10102220,
33,
5,
000000000000000000000000000000000000000000000008,
,
,
22,
22,
7,
8,
22,
2,
22,
2,
12,
12,
1212,
1210,//76
#GOGOSTART
11101110,
11,
11101110,
11,
11101110,
1033,
3044,
44,
5,
,
000000000000000000000000000000000008000000000000,
3,//88
#GOGOEND
,
,
#END
