//TJADB Project
TITLE:Hanaoto Ura Hyoushi
TITLEJA:花オト裏拍子
SUBTITLE:--Harunaba feat. Hatsune Miku
SUBTITLEJA:はるなば feat.初音ミク
BPM:145
WAVE:Hanaoto Ura Hyoushi.ogg
OFFSET:-3.616
DEMOSTART:56.590

COURSE:Oni
LEVEL:9
SCOREINIT:450
SCOREDIFF:113
#START
1110221100211022,
1110221100211022,
1122221112211020,
30222222,
#GOGOSTART
1020112101201020,
1020112100201020,
1020112101201020,
1020112100222211,
1020201110102011,
21212120,
1020201110102011,
2022101020104000,
1020201110102011,
21212120,
1020201110102011,
2022101020104000,
1020112010201120,
1020112011201120,
1020112010201120,
1020102211212012,
1020112010201120,
1020112011201120,
1112111211221212,
500000000000000000000000000000000008000000100000,
#GOGOEND
1022201210202211,
100000200000200000100100202020100100100100100000,
100200200122100200200100,
2211221122022010,
100000202020200000200000100200000100200000100100,
1020201021021012,
2211221122112210,
3030303030112222,
#GOGOSTART
1020102101201022,
1020101202102012,
1020102101201021,
2010200201102212,
1020102101201022,
1020101202102012,
1020102101201021,
2011201020112222,
1001201012012010,
2222,
#GOGOEND
500000000000000000000000000000000000000000000008,
,
2,
,
2,
,
2,
,
111100200100111200100200,
101010100000200000100000500000000008000000000000,
111100200100111200100200,
101010100000200000100000500000000008000000200000,
111100200100111200100200,
1122,
40222222,
3330,
#GOGOSTART
1020102101201022,
1020101202102012,
1020102101201021,
2010200201102212,
1020102101201022,
1020101202102012,
1020102101201021,
2011201020112212,
1001201012012010,
2222,
1020112101201020,
1020112100201020,
1020112101201020,
1020112100212210,
1020112101201020,
1020112100201020,
1020112101201020,
1020112100222211,
#BPMCHANGE 140
#SCROLL 1.03571428571
100000200200101010100100
#BPMCHANGE 130
#SCROLL 1.11538461538
100000202010100000100100,
#BPMCHANGE 120
#SCROLL 1.20833333333
100000200200101010100100
#BPMCHANGE 115
#SCROLL 1.26086956522
100000100100100000100100,
3,
#END

COURSE:Hard
LEVEL:6
BALLOON:10,30
SCOREINIT:590
SCOREDIFF:158
#START
5,
000000000000000000000000000000000008000000000000,
7008,
30222222,
#GOGOSTART
1010101100101000,
1010101100101000,
1010101100101000,
1010101100101000,
10011001,
1111,
500000000000000000000008000000000000100000000000,
1001,
10011001,
1111,
500000000000000000000008000000000000000000100000,
10011001,
12021202,
12121212,
12021202,
12121011,
12021202,
12121212,
1110222011102220,
500000000000000000000000000008000000000000100000,
#GOGOEND
1022201010202010,
100000200200200000100000500000000008000000100000,
1022201010202010,
100000200200200000100000500000000008000000100000,
1022201010202010,
100000200200200000100000500000000008000000000000,
3333,
3330,
#GOGOSTART
12021202,
1020102010111010,
12021202,
1020102010222020,
12021202,
1020102010111010,
12021202,
1011100030000000,
1001001010010010,
1222,
#GOGOEND
500000000000000000000000000000000000000000000008,
,
2,
,
2,
,
2,
,
10011001,
1110,
10011002,
20202001,
10011001,
1122,
40222222,
3330,
#GOGOSTART
12021202,
1020102010111010,
12021202,
1020102010222020,
12021202,
1020102010111010,
12021202,
1020102010222220,
1000001010010010,
1222,
9,
,
8,
,
1010101100101000,
1010101100101000,
1010101100101000,
1010101100101000,
#BPMCHANGE 140
#SCROLL 1.03571428571
33
#BPMCHANGE 130
#SCROLL 1.11538461538
33,
#BPMCHANGE 120
#SCROLL 1.20833333333
44
#BPMCHANGE 115
#SCROLL 1.26086956522
33,
3,
#END

COURSE:Normal
LEVEL:5
BALLOON:8,8,8,22
SCOREINIT:630
SCOREDIFF:173
#START
5,
000000000000000000000000000000000008000000000000,
7008,
3,
#GOGOSTART
11110110,
11110110,
11110110,
11110110,
10011001,
1111,
500000000000000000000008000000000000100000000000,
1001,
10011001,
1111,
500000000000000000000008000000000000000000100000,
10011001,
10011001,
1111,
500000000000000000000008000000000000100000000000,
10011001,
10011001,
1111,
1111,
500000000000000000000000000008000000000000100000,
#GOGOEND
10011001,
20012001,
10011001,
20012001,
10011001,
20012001,
3333,
3330,
#GOGOSTART
11011101,
1110,
11011101,
1110,
11011101,
1111,
11011101,
11103000,
7008,
1222,
#GOGOEND
500000000000000000000000000000000000000000000008,
,
2,
,
2,
,
2,
,
10011001,
1110,
10011002,
20202001,
10011001,
1122,
40222222,
3330,
#GOGOSTART
11011101,
1110,
11011101,
1220,
11011101,
1111,
11011101,
1220,
7008,
1222,
9,
,
8,
,
11110110,
11110110,
11110110,
11110110,
#BPMCHANGE 140
#SCROLL 1.03571428571
33
#BPMCHANGE 130
#SCROLL 1.11538461538
33,
#BPMCHANGE 120
#SCROLL 1.20833333333
44
#BPMCHANGE 115
#SCROLL 1.26086956522
33,
3,
#END

COURSE:Easy
LEVEL:3
BALLOON:5,5,15
SCOREINIT:540
SCOREDIFF:183
#START
5,
000000000000000000000000000000000008000000000000,
7008,
3,
#GOGOSTART
1110,
1110,
1110,
500000000000000000000000000000008000000000000000,
11,
1110,
1001,
1,
11,
1110,
1,
11,
11,
1110,
1001,
11,
11,
1111,
1111,
500000000000000000000000000000008000000000000000,
#GOGOEND
10011000,
20022000,
10011000,
20022000,
10011000,
20022000,
3333,
3330,
#GOGOSTART
11,
1110,
11,
2220,
11,
1111,
11,
3330,
12,
1222,
#GOGOEND
500000000000000000000000000000000000000000000008,
,
2,
,
2,
,
2,
,
11,
1110,
11,
2220,
11,
1122,
7008,
3330,
#GOGOSTART
11,
1110,
22,
2220,
11,
1111,
22,
2220,
12,
1222,
9,
,
8,
,
1112,
1110,
1112,
1110,
#BPMCHANGE 140
#SCROLL 1.03571428571
3
#BPMCHANGE 130
#SCROLL 1.11538461538
3,
#BPMCHANGE 120
#SCROLL 1.20833333333
4
#BPMCHANGE 115
#SCROLL 1.26086956522
4,
3,
#END
