//TJADB Project
TITLE:8OROCHI
TITLEJA:8OROCHI
SUBTITLE:--REDALiCE
SUBTITLEJA:REDALiCE
BPM:200.8
WAVE:8OROCHI.ogg
OFFSET:-1.802
DEMOSTART:62.751 //Shinuchi:
2840/1910/1390/1010/930

COURSE:Edit
LEVEL:10
BALLOON:8,7,6,5,4,3,2
SCOREINIT:360,1000
SCOREDIFF:80
#START
122100000200000000000000,
01001010,
122100000200000000000000,
01001010,
122100200200200200200200,
21221212,
102020100100200200100100200200200200100100100100,
222222111111222222111111,
1, //9
300000202020200000100000100000200000200200100000,
1010221020122010,
1022100210100020,
122122122210
#SCROLL 2.5
4000,
#SCROLL 1
300000202020200000100000100000200000200200100000,
1010221020122011,
1002101002101012,
221210104040
#SCROLL 2.5
3000, //17
#SCROLL 1
1111102010221010,
0020102210201220,
1020102210100020,
122122122210
#SCROLL 2.5
4000,
#SCROLL 1
1020102210100020,
1220102010221011,
1002101002101012,
221210104040
#SCROLL 2.5
3000, //25
#SCROLL 1
12,
01002020,
11011011,
02202020,
1222,
21102020,
11011011,
2020202022202020, //33
1110201110201110,
2012102012121222,
1011201011201011,
200000100000100200200000100000202020100000200000,
1110201110201110,
2012102012121222,
1011201011201011,
200000100000100200200000100000202020100000200000, //41
1112101211101212,
1012221040004000,
1211101112101212,
1012221040004000,
000000
#SCROLL 2
001
#SCROLL 1
000
#SCROLL 1.65
100
#SCROLL 1.35
020
#SCROLL 1.11
001
#SCROLL 1
000
#SCROLL 0.91
100
#SCROLL 0.74
010
#SCROLL 0.61
002
#SCROLL 1
000
#SCROLL 0.5
200
#SCROLL 1
000000000, //46
000000
#SCROLL 2
001
#SCROLL 1
000
#SCROLL 1.65
100
#SCROLL 1.35
020
#SCROLL 1.11
001
#SCROLL 1
000
#SCROLL 0.91
100
#SCROLL 0.74
010
#SCROLL 0.61
002
#SCROLL 1
000
#SCROLL 0.5
100
#SCROLL 1
000000000, //47
000000
#SCROLL 2
001
#SCROLL 1
000
#SCROLL 1.65
100
#SCROLL 1.35
020
#SCROLL 1.11
001
#SCROLL 1
000
#SCROLL 0.91
100
#SCROLL 0.74
010
#SCROLL 0.61
002
#SCROLL 1
000
#SCROLL 0.5
200
#SCROLL 1
000000000, //48
000000
#SCROLL 2
001
#SCROLL 1
000
#SCROLL 1.65
100
#SCROLL 1.35
020
#SCROLL 1.11
001
#SCROLL 1
000
#SCROLL 0.91
100
#SCROLL 0.74
010
#SCROLL 0.61
002
#SCROLL 1
000
#SCROLL 0.5
100
#SCROLL 1
000000000, //49
1111222211221122,
100200100000000000100000500000000000000008000000, //51
#GOGOSTART
1022102012101022,
102012221000
#SCROLL 2.5
2000,
#SCROLL 1
1012102012112010,
0012201111203000,
1022102012101022,
1020122210201012,
1112101221101122,
101212102020
#SCROLL 2.5
3000, //59
#SCROLL 1
1022102012101022,
102012221000
#SCROLL 2.5
2000,
#SCROLL 1
1012102012112010,
0012201012112000,
1012101021101012,
1010211012221012,
1112101221101122,
101212102020
#SCROLL 2.5
3000,
#GOGOEND
#SCROLL 1
3, //68
1000000011100010,
02101020,
10101210,
122122121000
#SCROLL 2.5
4000,
#SCROLL 1
1212,
1010200010002022,
10210210,
201110104040
#SCROLL 2.5
3000, //76
#SCROLL 1
122100200100000100200100,
1111201000102010,
102020100000200000100200100000100000200000100000,
122122121010
#SCROLL 2.5
4000,
#SCROLL 1
102020100000200000100200100000100200200000200200,
1010201210122022,
10020010,
02003300, //84
#SCROLL 3
700000000000
#SCROLL 1
080000200000200000200000000000000000,
#SCROLL 3
700000000000
#SCROLL 1
080000200000200000200000000000000000,
#SCROLL 3
700000000000
#SCROLL 1
080000200000200000200000000000000000,
#SCROLL 3
700000000000
#SCROLL 1
080000200000200000200000000000000000, //88
#SCROLL 3
700
#SCROLL 1
000
#SCROLL 2
081
#SCROLL 1
000
#SCROLL 1.65
100
#SCROLL 1.35
020
#SCROLL 1.11
001
#SCROLL 1
000
#SCROLL 0.91
100
#SCROLL 0.74
010
#SCROLL 0.61
002
#SCROLL 1
000
#SCROLL 0.5
200
#SCROLL 1
000000000, //89
#SCROLL 3
700
#SCROLL 1
000
#SCROLL 2
082
#SCROLL 1
000
#SCROLL 1.65
200
#SCROLL 1.35
020
#SCROLL 1.11
001
#SCROLL 1
000
#SCROLL 0.91
200
#SCROLL 0.74
020
#SCROLL 0.61
001
#SCROLL 1
000
#SCROLL 0.5
200
#SCROLL 1
000000000, //90
#SCROLL 3
700
#SCROLL 1
000
#SCROLL 2
081
#SCROLL 1
000
#SCROLL 1.65
100
#SCROLL 1.35
020
#SCROLL 1.11
001
#SCROLL 1
000
#SCROLL 0.91
100
#SCROLL 0.74
010
#SCROLL 0.61
002
#SCROLL 1
000
#SCROLL 0.5
200
#SCROLL 1
000000000, //91
300000
#SCROLL 2
002
#SCROLL 1
000
#SCROLL 1.35
200
#SCROLL 1.11
010
#SCROLL 0.91
002
#SCROLL 1
000
#SCROLL 0.74
200
#SCROLL 0.61
010
#SCROLL 0.5
002
#SCROLL 1
000200200200200, //92
100200100000000000100000500000000000000008000000, //93
#GOGOSTART
1022102012101022,
102012221000
#SCROLL 2.5
2000,
#SCROLL 1
1012102012112010,
0012201111202000,
1022102012101022,
1020122210201012,
1112101221101122,
101212102020
#SCROLL 2.5
3000, //101
#SCROLL 1
1111102110102021,
101022221010
#SCROLL 2.5
20
#SCROLL 1
11,
1111102110102010,
000122100100000122100100,
2222212222112221,
1122111121111011,
1222111221111211,
111010104040
#SCROLL 2.5
3000, //109
#SCROLL 1
100000222100000222100000,
111010104040
#SCROLL 2.5
3000,
#GOGOEND
#SCROLL 1
0,
0,
0, //114
#END

COURSE:Oni
LEVEL:10
BALLOON:8
SCOREINIT:370,1050
SCOREDIFF:90
#START
122100000200000000000000,
01001010,
122100000200000000000000,
01001010,
122100200200200200200200,
21221212,
102020100100200200100100200200100100200200100100,
70000008,
3, //9
300000202020200000100000100000200000200200100000,
1010221020122010,
1022100210100020,
1221221222104000,
300000202020200000100000100000200000200200100000,
1010221020122011,
1002203002203020,
2212101040400000, //17
1111102010001000,
1020102210201220,
12101012,
1221221222104000,
12101012,
1022102012201011,
1002203002203020,
2212101040400000, //25
12,
01002020,
11011011,
02202020,
1222,
01102020,
11011011,
2020202022202020, //33
11211211,
2012102012121222,
11211211,
200000100100100000200000100000202020100000200000,
11211211,
2012102012121222,
11211211,
200000100100100000200000100000202020100000200000, //41
1112101211101212,
1012221040004000,
1211101112101212,
1012221040004000,
001111111200,
001111112200,
001111122200,
001111222200,
1122112211221122,
100200100000000000100000500000000000000008000000, //51
#GOGOSTART
1022102012101022,
1020122210002000,
1012102012112010,
0012201111203000,
1022102012101022,
1020122210201012,
1112101221101122,
1012121020203000, //59
1022102012101022,
1020122210002000,
1012102012112010,
0012201012112000,
1012101021101012,
1010211012221012,
1112101221101122,
1012121020200000,
#GOGOEND
3, //68
1000000011100010,
02101020,
10101210,
1221221210004000,
1212,
1010200010002022,
10210210,
2011101040400000, //76
122100200100000100200100,
1111201000102010,
102020100000200000100200100000100000200000100000,
1221221210104000,
102020100000200000100200100000100000200000200200,
1010201210102022,
10020010,
02003300, //84
22022200,
22022200,
22022200,
22022200,
002210101020202020200000,
002210102020202020200000,
002210202020202020200000,
000020202000200020002000200020002000200200200200,
100200100000000000100000500000000000000008000000, //93
#GOGOSTART
1022102012101022,
1020122210002000,
1012102012112010,
0012201111202000,
1022102012101022,
1020122210201012,
1112101221101122,
1012121020200000, //101
1111102110102021,
1010222210102110,
1111102110102010,
000122100100000122100100,
2222102221102211,
1021111011111011,
1222111222111222,
1110101040400000, //109
100000222100000222100000,
1110101040400000,
#GOGOEND
0,
0,
0, //114
#END

COURSE:Hard
LEVEL:8
BALLOON:7
SCOREINIT:390,1450
SCOREDIFF:95
#START
1110002000000000,
01001010,
1110002000000000,
01001010,
1110202020202020,
01221212,
1110202011102020,
70000008,
3, //9
3022201010100010,
11010102,
1022201010100020,
500000000000000000000008000000000000400000000000,
3022201010100010,
1010001000100011,
10230230,
2011101040400000, //17
1111100010001000,
12101210,
10101012,
500000000000000000000008000000000000400000000000,
12101012,
1000102010001011,
10230230,
1110101040400000, //25
12,
01002020,
11011011,
02202020,
1222,
01002020,
11011011,
2020202022202000, //33
11211211,
0011102010102000,
11211211,
0020202010222000,
11211211,
0011102010102000,
11211211,
0020202010222000, //41
1110001110001110,
0011101040004000,
1110001110001110,
0011101040004000,
001111111100,
001111111100,
001111111100,
001111111100,
500000000000000000000000000000000008000000000000,
100100100000000000100000500000000000000008000000, //51
#GOGOSTART
2022202000102010,
0022202010002000,
2022202000102010,
0022202010002000,
2022201000222010,
0020222010002011,
1000001110001110,
0011101020203000, //59
2022202000102010,
0022202010002000,
2022202000102010,
0022202010002000,
2022201000222010,
0020222010002011,
1000001110001110,
0011101020200000,
#GOGOEND
3, //68
1000000011100010,
02101020,
10101210,
500000000000000000000008000000000000400000000000,
1212,
1010200010002011,
10210210,
2011101040400000, //76
1110001000102000,
1110201000102000,
1110001000102000,
500000000000000000000008000000000000400000000000,
1110200010102000,
1110200010102011,
10020010,
02003300, //84
22022200,
22022200,
22022200,
22022200,
022222222200,
022222222200,
022222222200,
022222222200,
100100100000000000100000500000000000000008000000, //93
#GOGOSTART
2022202000102010,
0022202010002000,
2022202000102010,
0022202010002000,
2022201000222010,
0020222010002011,
1000001110001110,
0011101020200000, //101
2022202000102010,
0022202010002000,
2022202000102010,
0022201000222010,
2022201000222010,
0020222010002011,
1000111000111000,
1110101040400000, //109
1000222000222000,
1110101040400000,
#GOGOEND
0,
0,
0, //114
#END

COURSE:Normal
LEVEL:7
BALLOON:6,4,4,4,4,5,5,5,5
SCOREINIT:430,2250
SCOREDIFF:103
#START
11020000,
01001010,
11020000,
01001010,
11020222,
01001010,
12101210,
70000008,
3, //9
30211101,
11010102,
10211102,
500000000000000000000008000000000000400000000000,
30211101,
11010100,
30030030,
03004400, //17
11101010,
12101210,
10101012,
500000000000000000000008000000000000400000000000,
10101012,
10121010,
30030030,
03004400, //25
12,
01002020,
22022022,
02200000,
12,
01002020,
22022022,
500000000000000000000000000000000008000000000000, //33
11011011,
01101210,
11011011,
02202220,
11011011,
01101210,
11011011,
02202220, //41
11120112,
01104040,
11120112,
01104040,
007000000800,
007000000800,
007000000800,
007000000800,
0,
33030000, //51
#GOGOSTART
10210121,
02221020,
10210121,
02010200,
10210221,
02221020,
10210210,
21004400, //59
10210121,
02221020,
10210121,
02010200,
10210221,
02221020,
10210210,
21004400,
#GOGOEND
3, //68
10001001,
02101020,
10101210,
500000000000000000000008000000000000400000000000,
1212,
11201020,
30030030,
03004400, //76
11010120,
10210120,
11010120,
500000000000000000000008000000000000400000000000,
10101120,
10101120,
10020010,
02003300, //84
22022200,
22022200,
22022200,
22022200,
070000000800,
070000000800,
070000000800,
070000000800,
33030000, //93
#GOGOSTART
10210121,
02221020,
10210121,
02010200,
10210221,
02221020,
10210210,
21004400, //101
10210121,
02221020,
10210121,
02010220,
10220222,
02221020,
10210210,
21004400, //109
30230230,
23004400,
#GOGOEND
0,
0,
0, //114
#END

COURSE:Easy
LEVEL:5
BALLOON:3,3,3,3,4,4,4,4
SCOREINIT:340,3740
SCOREDIFF:83
#START
10020000,
01001010,
10020000,
01001010,
10020000,
01001010,
5,
000000000000000000000000000000000008000000000000,
3, //9
31,
10010100,
11,
500000000000000000000008000000000000400000000000,
31,
10010100,
30030030,
03004400, //17
0111,
0111,
0110,
500000000000000000000008000000000000400000000000,
1110,
1110,
30030030,
03004400, //25
12,
01002000,
20020020,
02000000,
12,
01002000,
20020020,
500000000000000000000000000000000008000000000000, //33
10010010,
01002020,
10010010,
02002020,
10010010,
01002020,
10010010,
02002020, //41
1001,
0044,
1001,
0044,
007000000800,
007000000800,
007000000800,
007000000800,
0,
33030000, //51
#GOGOSTART
10010010,
02202000,
10010011,
01020200,
10010010,
01002000,
30030030,
03004400, //59
10010010,
02202000,
10010011,
01020200,
10010010,
01002000,
30030030,
03004400,
#GOGOEND
3, //68
10001001,
0112,
1111,
500000000000000000000008000000000000400000000000,
1212,
1212,
30030030,
03004400, //76
10010020,
10010020,
10010020,
500000000000000000000008000000000000400000000000,
1112,
1112,
10020010,
02003300, //84
2,
2,
2,
2,
070000000800,
070000000800,
070000000800,
070000000800,
33030000, //93
#GOGOSTART
10010010,
02202000,
10010011,
01020200,
10010010,
01002000,
30030030,
03004400, //101
10010010,
02202000,
10010011,
02020020,
10010010,
01002020,
30030030,
03004400, //109
30030030,
03004400,
#GOGOEND
0,
0,
0, //114
#END
