//TJADB Project
TITLE:Yumeiro Coaster
TITLEJA:夢色コースター
SUBTITLE:--Masanobu Komaba feat. Haruka Shimotsuki
BPM:160
WAVE:Yumeiro Coaster.ogg
OFFSET:-1.856
DEMOSTART:45.191

COURSE:Oni
LEVEL:8
BALLOON:28,25,36
SCOREINIT:430
SCOREDIFF:98
#START
1000201110100010,
2010202210101020,
0010201110100010,
2010202210101020,
0010201110100010,
2010202210101020,
0010201110102010,
0010201110111120,
0010201110100010,
2010201022101120,
0010201110102010,
2010201022111020,
0010201110102010,
2010202210101020,
0010202210102010,
2010201122101020,
0010201110102010,
2010202210101020,
0010201110102010,
2010202210111120,
0010201110100010,
2010201110101020,
0010201110102010,
2010120210111020,
00102011,
00112001,
01012012,
01120212,
0020201211111000,
#GOGOSTART
00401122,
1010202210102022,
1010202110102022,
1010202210102022,
1010202110102022,
1010202210102020,
1111201111201020,
0010101212112211,
20403344,
1010202210102022,
1010202110102022,
1010202210102022,
1010202110102022,
11200001,
10120303,
04030307,
,
#MEASURE 3/4
008,
#MEASURE 4/4
#GOGOEND
10210120,
#MEASURE 3/4
101000102011,
#MEASURE 4/4
10210120,
#MEASURE 3/4
,
#MEASURE 4/4
7,
#MEASURE 3/4
008,
#MEASURE 4/4
1011201010112020,
#MEASURE 3/4
101120112010,
#MEASURE 4/4
1011201010112020,
#MEASURE 3/4
101022112000,
#MEASURE 4/4
2010112210102210,
#MEASURE 3/4
201011221010,
#MEASURE 4/4
5,
#MEASURE 5/8
000000000008000000000000000000,
#MEASURE 4/4
20210121,
#MEASURE 3/4
010112,
#MEASURE 4/4
21212121,
01010112,
21212121,
#MEASURE 3/4
010112,
#MEASURE 4/4
21212121,
1010201011111010,
2011221020102011,
1010201020111022,
1011102210221122,
1011111212111040,
00000011,
01020001,
02010011,
00010002,
00010200,
#GOGOSTART
0000401111111120,
1010202210102022,
1010202110102022,
1010202210102022,
1010202110102022,
1010202210102020,
1111201111201020,
0010101212112211,
20403344,
1010202210102022,
1010202110102022,
1010202210102022,
1010202110102022,
11200001,
10120303,
04030400,
1011201010112020,
#MEASURE 3/4
101121112011,
#MEASURE 4/4
1011201010112000,
#BPMCHANGE 130.7
100001000000001000001000002000000000000000000000,
7,
08,
#GOGOEND
#END

COURSE:Hard
LEVEL:7
BALLOON:23,25,20
SCOREINIT:380
SCOREDIFF:100
#START
1000201110100010,
01201112,
0010201110100010,
01201102,
0010201110100010,
01201112,
01211011,
0010200000111020,
0010201110100010,
01210112,
01210112,
1010200010111020,
0010201110100010,
01201112,
0010201110100010,
01201012,
0010201110100010,
01201112,
01211011,
0010200000111020,
0010201110100010,
01210112,
01210112,
1010200010111020,
00102011,
00112001,
01012012,
01120212,
0020201011111000,//29
#GOGOSTART
00401121,
01221121,
01201121,
01221121,
01201121,
01221120,
10120102,
0010001010111011,
10401121,
01221121,
01201121,
01221121,
01201120,
11200001,
10120303,
04030307,
,
#MEASURE 3/4
008,//47
#MEASURE 4/4
#GOGOEND
10210120,
#MEASURE 3/4
101000102011,
#MEASURE 4/4
10210120,
#MEASURE 3/4
,
#MEASURE 4/4
7,
#MEASURE 3/4
008,
#MEASURE 4/4
1011101010111010,
#MEASURE 3/4
101110101000,
#MEASURE 4/4
1011101010111010,
#MEASURE 3/4
101110111000,
#MEASURE 4/4
1010111110101110,
#MEASURE 3/4
101011111010,
#MEASURE 4/4
5,
#MEASURE 5/8
000000000008000000000000000000,
#MEASURE 4/4
20210121,
#MEASURE 3/4
010101,
#MEASURE 4/4
21212121,
01010101,
21212121,
#MEASURE 3/4
010112,
#MEASURE 4/4
21212121,
0010201011101000,
21212121,
1010201020111010,
1011101010111010,
1011101011111020,
00000011,
01020001,
02010011,
00010002,
00010200,//78
#GOGOSTART
0000400011101020,
01221121,
01201121,
01221121,
01201120,
11221120,
10120102,
0010001010111011,
10201122,
01221121,
01201120,
01122112,
11201121,
01200001,
10120303,
04030300,
1011101010111010,
#MEASURE 3/4
101110111010,
#MEASURE 4/4
1011101010111000,
#SCROLL 0.8
110
#BPMCHANGE 130
#SCROLL 1
11100,
7,
08,//100
#GOGOEND
,
,
,
,
#END

COURSE:Normal
LEVEL:4
BALLOON:10,15,12
SCOREINIT:720
SCOREDIFF:160
#START
11,
1110,
11,
1110,
21,
1110,
10001005,
000000000000000000000008000000000000000000100000,
01100002,
02200001,
01100002,
02200000,
11,
1110,
11,
1110,
21,
1110,
10001005,
000000000000000000000008000000000000000000100000,
01100002,
02200001,
01100002,
02200000,
0120,
0120,
00102003,
00040004,
00030000,//29
#GOGOSTART
0402,
0202,
1202,
0202,
1202,
0202,
9009,
8,
3202,
1202,
0202,
1202,
0402,
1202,
10000101,
01010107,
,
#MEASURE 3/4
008,//47
#MEASURE 4/4
#GOGOEND
21,
#MEASURE 3/4
100022,
#MEASURE 4/4
21,
#MEASURE 3/4
112,
#MEASURE 4/4
7,
#MEASURE 3/4
008,
#MEASURE 4/4
1202,
#MEASURE 3/4
122,
#MEASURE 4/4
1202,
#MEASURE 3/4
122,
#MEASURE 4/4
0110,
#MEASURE 3/4
,
#MEASURE 4/4
5,
#MEASURE 5/8
000000000008000000000000000000,
#MEASURE 4/4
00000101,
#MEASURE 3/4
010101,
#MEASURE 4/4
00000001,
01010101,
00000001,
#MEASURE 3/4
010202,
#MEASURE 4/4
01000002,
02020202,
00000001,
01010111,
01010111,
01110104,
00000001,
02000100,
01010001,
00010002,
00010200,//78
#GOGOSTART
0402,
1202,
0202,
1202,
0202,
1202,
9009,
8,
3202,
1202,
0202,
1202,
0202,
1202,
10000101,
01010100,
1202,
#MEASURE 3/4
122,
#MEASURE 4/4
1202,
#SCROLL 0.8
500000000000000000
#BPMCHANGE 130
#SCROLL 1
000000000008000000000000000000,
7,
08,//100
#GOGOEND
,
,
,
,
#END

COURSE:Easy
LEVEL:4
BALLOON:8,13,10,8,15
SCOREINIT:660
SCOREDIFF:140
#START
11,
1,
11,
1,
21,
1,
10001005,
000000000000000000000008000000000000000000000000,
1100,
2200,
1100,
2200,
11,
1,
11,
1,
21,
1,
10001005,
000000000000000000000008000000000000000000000000,
1100,
2200,
1100,
2200,
0120,
0120,
00102003,
00040004,
00030000,//29
#GOGOSTART
0402,
0202,
0202,
0202,
0202,
0202,
9009,
8,
1202,
0202,
0202,
0202,
0202,
0202,
10000500,
000000000000000000000000000008000000000000700000,
,
#MEASURE 3/4
008,//47
#MEASURE 4/4
#GOGOEND
21,
#MEASURE 3/4
102,
#MEASURE 4/4
21,
#MEASURE 3/4
102,
#MEASURE 4/4
7,
#MEASURE 3/4
008,
#MEASURE 4/4
12,
#MEASURE 3/4
102,
#MEASURE 4/4
12,
#MEASURE 3/4
102,
#MEASURE 4/4
0110,
#MEASURE 3/4
,
#MEASURE 4/4
5,
#MEASURE 5/8
000000000008000000000000000000,
#MEASURE 4/4
00000100,
#MEASURE 3/4
010001,
#MEASURE 4/4
00000002,
00020002,
00000003,
#MEASURE 3/4
03,
#MEASURE 4/4
03000004,
00040004,
00000001,
01010101,
00000002,
02020202,
,
02020001,
01010001,
00010002,
00010100,//78
#GOGOSTART
0402,
0202,
0202,
0202,
0202,
0202,
9009,
8,
1202,
0202,
0202,
0202,
0202,
0202,
10000500,
000000000000000000000000000008000000000000000000,
1200,
#MEASURE 3/4
,
#MEASURE 4/4
1200,
#SCROLL 0.8
500000000000000000
#BPMCHANGE 130
#SCROLL 1
000000000008000000000000000000,
,
,//100
#GOGOEND
,
,
,
,
#END
