//TJADB Project
TITLE:Honey Heartbeat ~10 Stars Mix~ -AC16 Chart-
TITLEJA:Honey Heartbeat ~10 Stars Mix~
SUBTITLE:--Linda AI-CUE feat. 765PRO ALLSTARS/THE iDOLM@STER 2
SUBTITLEJA:AC16譜面 「アイドルマスター」より
BPM:142
WAVE:Honey Heartbeat 10 Stars Mix.ogg
OFFSET:-2.007
DEMOSTART:70.149 //Shinuchi:
3930/2800/1890/1200/1180

COURSE:Edit
LEVEL:10
BALLOON:12
SCOREINIT:430,1290
SCOREDIFF:103
#START
00020205,
#BPMCHANGE 141.56
0,
#BPMCHANGE 142
000008000000000000200000000000200000200000000000,
10050000,
#BPMCHANGE 142.35
#SCROLL 0.99
000000000000000000000000000008000000000000100100, //5
#BPMCHANGE 142
#SCROLL 1
1020001110200011,
#BPMCHANGE 142.42
#SCROLL 0.99
12020202,
#BPMCHANGE 141.83
#SCROLL 1
10100202,
#BPMCHANGE 141.77
1010222010210212, //9
#MEASURE 8/4
#BPMCHANGE 284
#SCROLL 0.5
#GOGOSTART
100000100100200200101010100200200100200100100200,
#BPMCHANGE 284.36
10101110202010000000400040000000,
#BPMCHANGE 284
100000100100200200101010100200200100200100100200,
10102220202010000000300030000000, //13
100000100100200200101010100200200100200100100200,
10101110202010000000400040000000,
100000100100200200101010
#BPMCHANGE 285.06
100200200100200100100200,
#BPMCHANGE 283.47
10222010000010000000100010002000, //17
#GOGOEND
#MEASURE 4/4
#BPMCHANGE 142
#SCROLL 1
1000102212010020,
1000202210210010,
1000102210210040,
4000212210210211,
1010221211120011,
1020201221120011,
1022121220120212,
2212221120102022, //25
1001022210010222,
1001022212010000,
1222121210210212,
100100200100200100100100200200200100000000101010,
100000400111100000400111,
100000000000400000101010200000000200200200100100,
1010201020121122,
1010102020012100, //33
03300330,
1011222040040040,
03300330,
1011222030040040,
3003003030000000,
000300000300000300000111,
200111200111200111200100,
33000000, //41
#MEASURE 8/4
#BPMCHANGE 284
#SCROLL 0.5
#GOGOSTART
100000000000100000100000200000200000100010001000100000200000200000100000200000100100100000200000,
10101110202010000000100010002000,
100000000000100000100000200000200000100010001000100000200000200000100000200000100100100000200000,
100000100000200200100000200000200000100000000000000000000000100000000000100000000000100010001000, //45
100200000222100200000111,
100200000200000200000111,
20400306,
000000000000000000000000000000000000000000000008000000000000200000000000000000000000200000000000, //49
100000000000100000100000200000200000100010001000100000200000200000100000200000100100100000200000,
10101110202010000000100010002000,
100000000000100000100000200000200000100010001000100000200000200000100000200000100100100000200000,
10102210202010000000100010000000, //53
100111200100200112200100,
200111200100000400000400,
4040
#BPMCHANGE 282.91
4400,
600000000000000000000000000000000000000000000000000000000000000000000008000000000000300000000000, //57
#BPMCHANGE 285.1
#SCROLL 0.63
600000000000000000000000000000000000000000000000000000000000000000000008000000000000000000000000,
600000000000000000000000000000000000000000000000
#BPMCHANGE 284
000000000000000000000008000000000000300000000000,
#SCROLL 0.75
33,
40004003, //61
#SCROLL 0.88
3330,
40404003,
#SCROLL 1
3330,
700000000000000000000000000000000000000000000008
#BPMCHANGE 278.18
000000000000000000000000000000000000000000000000, //65
#BPMCHANGE 285.49
100000200000100100100000200000100000100000100000200010001000100000100000000000100000200000000000,
100000200000100100100000200000100000100000200000100010001000100000100000000000100000200000000000,
#BPMCHANGE 284
100000200000100100100000200000100000100000100000200010001000100000100000000000100000200000000000,
100000200000100100100000200000100000100000200000100010001000100000100000000000100000200000000000, //69
100000200000100100100000200000100000200000200000200010001000100000100000000000100000200000000000,
100000200000100100100000200000100000200000200000100010001000100000100000000000100000200000000000,
22201020111020201110201022201020,
100010001000100000200000200000000000100010001000100000200000200000000000200000000000000000000000, //73
#GOGOEND
#MEASURE 4/4
#BPMCHANGE 142
11010100,
0001,
10010000,
0, //77
11010100,
0001,
1122,
1000200021121121, //81
#MEASURE 8/4
#BPMCHANGE 284
#SCROLL 0.5
#GOGOSTART
100000000000100000100000200000200000100010001000100000200000200000100000200000100100100000200000,
10202010201110202011202000201000,
100000000000100000100000200000200000100010001000100000200000200000100000200000100100100000200000,
1020201020111020
#BPMCHANGE 282.54
2011202000005000, //85
#BPMCHANGE 284
000000000000000000000000000000000000000000000000000000000000000000000008000000000000000000000000,
30003000
#BPMCHANGE 285.38
30002211,
#GOGOEND
#MEASURE 4/4
#BPMCHANGE 142
#SCROLL 7.65
3,
#BARLINEOFF
#SCROLL 1
0, //89
#END

COURSE:Oni
LEVEL:9
BALLOON:6
SCOREINIT:400,1270
SCOREDIFF:95
#START
00010105,
#BPMCHANGE 141.56
0,
#BPMCHANGE 142
000008000000000000100000000000100000100000000000,
10050000,
#BPMCHANGE 142.35
#SCROLL 0.99
000000000000000000000000000008000000000000100000, //5
#BPMCHANGE 142
#SCROLL 1
12011201,
#BPMCHANGE 142.42
#SCROLL 0.99
12010102,
#BPMCHANGE 141.83
#SCROLL 1
20200101,
#BPMCHANGE 141.77
1010222040040040, //9
#MEASURE 8/4
#BPMCHANGE 284
#SCROLL 0.5
#GOGOSTART
1010220210210210,
#BPMCHANGE 284.36
1011221010120210,
#BPMCHANGE 284
1010220210210210,
1021221010120212,
1010220210210210,
1011221010120210,
10102202
#BPMCHANGE 285.06
10210210,
#BPMCHANGE 283.47
300000000000000000300000000000000000600000000000000000000000000000000008000000000000200000000000, //17
#GOGOEND
#MEASURE 4/4
#BPMCHANGE 142
#SCROLL 1
1000102212010020,
2022202210210010,
1022202212210020,
2022202210120011,
1010101110120011,
1010101110120020,
200000200200200000200200200000202020200000200200,
1122112030404010, //25
1012011210210121,
1012011210210012,
1112111210020211,
1211121120220040,
300222200300400111100400,
300000202020200000300000400000000200200200100100,
1010002030022211,
1010001040221221, //33
2010102110101021,
1010122030030030,
2010202110102021,
1010122030030030,
11111111,
11111111,
1120112011221122,
1030000000302211, //41
#MEASURE 8/4
#BPMCHANGE 284
#SCROLL 0.5
#GOGOSTART
1010220210210212,
1011221011120210,
1010220210210212,
1021221011120211,
200100400111100100400111,
100000100000400000200100000100200000300000202020,
2021201000100500,
000000000000000000000000000000000000000000000008000000000000200000000000000000000000200000000000, //49
1010220210210212,
1011221011120210,
1010220210210212,
1021221011120221,
100100400111100100400111,
100000100000400000200100000100200000200000202020,
20102021
#BPMCHANGE 282.91
20200220,
3002203002203040, //57
#BPMCHANGE 285.1
500000000000000000000000000000000000000000000000000000000000000000000008000000000000000000000000,
600000000000000000000000000000000000000000000000
#BPMCHANGE 284
000000000000000000000008000000000000300000000000,
3010220210210111,
1010220210210122,
1210220210210111,
1010220210210122,
1210220210210202,
12221222
#BPMCHANGE 278.18
#SCROLL 0.51
12121122, //65
#BPMCHANGE 285.49
#SCROLL 0.5
1212021210210210,
2112122010212222,
#BPMCHANGE 284
1110221011210211,
1012012210210121,
2200402211122211,
1221221211211211,
200200100200200100200200100100200100200200101010,
1002203002203000, //73
#GOGOEND
#MEASURE 4/4
#BPMCHANGE 142
#SCROLL 1
5,
000000000000000008000000000000000000100000000000,
5,
000000000000000000000000000008000000000000000000,
1111,
10101011,
1111,
700000000000000008000000300000000300000000300000, //81
#MEASURE 8/4
#BPMCHANGE 284
#SCROLL 0.5
#GOGOSTART
1010221110210212,
1111221110120211,
1010221110210212,
12212212
#BPMCHANGE 282.54
10122150, //85
#BPMCHANGE 284
0,
000000000000000000000000000000000000000000000000
#BPMCHANGE 285.38
000000000000000000000008000000000000000000000000,
#GOGOEND
#MEASURE 4/4
#BPMCHANGE 142
#SCROLL 1
3,
0, //89
#END

COURSE:Hard
LEVEL:7
BALLOON:
SCOREINIT:500,2150
SCOREDIFF:125
#START
00010105,
#BPMCHANGE 141.56
0,
#BPMCHANGE 142
000008000000000000100000000000100000100000000000,
10050000,
#BPMCHANGE 142.35
#SCROLL 0.99
000000000000000000000000000008000000000000100000, //5
#BPMCHANGE 142
#SCROLL 1
12011201,
#BPMCHANGE 142.42
#SCROLL 0.99
12010102,
#BPMCHANGE 141.83
#SCROLL 1
20200105,
#BPMCHANGE 141.77
000000000000000000000000000000000000000008000000, //9
#MEASURE 8/4
#BPMCHANGE 284
#SCROLL 0.5
#GOGOSTART
1010220010220220,
#BPMCHANGE 284.36
1010220010202000,
#BPMCHANGE 284
1010220010220220,
1010220010222000, //13
1010220010220220,
1010220010202000,
10102200
#BPMCHANGE 285.06
10010010,
#BPMCHANGE 283.47
3003003000000000, //17
#GOGOEND
#MEASURE 4/4
#BPMCHANGE 142
#SCROLL 1
1000101111010020,
2000200020220010,
1000100010110020,
2000202220220011,
1010101110110000,
1010101110110000,
2000200020000011,
11113001, //25
1011011110110111,
1011011110220000,
1110111020020111,
1011101110220030,
3434,
3000403030011111,
1010003030022222,
22044000, //33
01100110,
3000300030030030,
01100110,
3000300030030030,
11111111,
11111111,
3333,
33000000, //41
#MEASURE 8/4
#BPMCHANGE 284
#SCROLL 0.5
#GOGOSTART
1010220010220220,
1010220010202000,
1010220010220220,
1010220010222010,
12011201,
12010102,
20200105,
000000000000000000000000000000000000000000000008000000000000200000000000000000000000200000000000, //49
1010220010220220,
1010220010202000,
1010220010220220,
1010220010222000,
2011100020111000,
2011101000100010,
1010
#BPMCHANGE 282.91
2200,
30030034, //57
#BPMCHANGE 285.1
500000000000000000000000000000000000000000000000000000000000000000000008000000000000000000000000,
600000000000000000000000000000000000000000000000
#BPMCHANGE 284
000000000000000000000008000000000000300000000000,
33,
40004003,
3330,
40404003,
3000300030000006,
000000000000000000000000000000000000000000000000
#BPMCHANGE 278.18
#SCROLL 0.51
000000000000000000000008000000000000000000000000, //65
#BPMCHANGE 285.49
#SCROLL 0.5
11010000,
22020000,
#BPMCHANGE 284
1110222010010010,
2002002000000000,
1000200010010010,
2002002020200000,
1001001020020020,
30030030, //73
#GOGOEND
#MEASURE 4/4
#BPMCHANGE 142
#SCROLL 1
5,
000000000000000008000000000000000000100000000000,
5,
000000000000000000000000000008000000000000000000,
1111,
10101011,
1111,
1000000010010010, //81
#MEASURE 8/4
#BPMCHANGE 284
#SCROLL 0.5
#GOGOSTART
1010220010220220,
1010220010202011,
1010220010220220,
10102200
#BPMCHANGE 282.54
10222050, //85
#BPMCHANGE 284
0,
000000000000000000000000000000000000000000000000
#BPMCHANGE 285.38
000000000000000000000008000000000000000000000000,
#GOGOEND
#MEASURE 4/4
#BPMCHANGE 142
#SCROLL 1
3,
0, //89
#END

COURSE:Normal
LEVEL:4
BALLOON:
SCOREINIT:470,3330
SCOREDIFF:128
#START
00010105,
#BPMCHANGE 141.56
0,
#BPMCHANGE 142
000008000000000000100000000000100000100000000000,
10050000,
#BPMCHANGE 142.35
#SCROLL 0.99
000000000000000000000000000008000000000000100000,
#BPMCHANGE 142
#SCROLL 1
11011101,
#BPMCHANGE 142.42
#SCROLL 0.99
11010102,
#BPMCHANGE 141.83
#SCROLL 1
20200105,
#BPMCHANGE 141.77
000000000000000000000000000000000008000000000000, //9
#MEASURE 8/4
#BPMCHANGE 284
#SCROLL 0.5
#GOGOSTART
11201000,
#BPMCHANGE 284.36
11010110,
#BPMCHANGE 284
11201000,
11010220,
11201000,
11010110,
1120
#BPMCHANGE 285.06
1000,
#BPMCHANGE 283.47
3003003000000000, //17
#GOGOEND
#MEASURE 4/4
#BPMCHANGE 142
#SCROLL 1
1110,
20202001,
10101110,
20202001,
10101110,
10101110,
20202001,
10103001, //25
10011001,
10012000,
11112001,
11112000,
3434,
30434000,
11033000,
22044000, //33
01100110,
3330,
01100110,
3330,
1111,
11111111,
3333,
33000000, //41
#MEASURE 8/4
#BPMCHANGE 284
#SCROLL 0.5
#GOGOSTART
11201000,
11010110,
11201000,
11010001,
11011101,
11010102,
20200105,
000000000000000000000000000000000000000000000008000000000000000000000000000000000000000000000000, //49
11201000,
11010110,
11201000,
11010220,
01100220,
11010101,
1010
#BPMCHANGE 282.91
2200,
30030030, //57
#BPMCHANGE 285.1
500000000000000000000000000000000000000000000000000000000000000000000008000000000000000000000000,
600000000000000000000000000000000000000000000000
#BPMCHANGE 284
000000000000000000000008000000000000300000000000,
33,
40004003,
3330,
40404003,
3000300030000006,
000000000000000000000000000000000000000000000000
#BPMCHANGE 278.18
#SCROLL 0.51
000000000000000000000008000000000000000000000000, //65
#BPMCHANGE 285.49
#SCROLL 0.5
10010000,
20020000,
#BPMCHANGE 284
1111,
2002002000000000,
1212,
1210,
1212,
30030030, //73
#GOGOEND
#MEASURE 4/4
#BPMCHANGE 142
#SCROLL 1
5,
000000000000000008000000000000000000100000000000,
5,
000000000000000000000000000008000000000000000000,
1111,
10101011,
1111,
11,//81
#MEASURE 8/4
#BPMCHANGE 284
#SCROLL 0.5
#GOGOSTART
11201000,
11010110,
11201000,
1101
#BPMCHANGE 282.54
0225, //85
#BPMCHANGE 284
0,
000000000000000000000000000000000000000000000000
#BPMCHANGE 285.38
000000000000000000000008000000000000000000000000,
#GOGOEND
#MEASURE 4/4
#BPMCHANGE 142
#SCROLL 1
3,
0, //89
#END

COURSE:Easy
LEVEL:3
BALLOON:
SCOREINIT:410,4870
SCOREDIFF:115
#START
00010105,
#BPMCHANGE 141.56
0,
#BPMCHANGE 142
000008000000000000000000000000000000000000000000,
10050000,
#BPMCHANGE 142.35
#SCROLL 0.99
000000000000000000000000000008000000000000000000,
#BPMCHANGE 142
#SCROLL 1
11,
#BPMCHANGE 142.42
#SCROLL 0.99
10010000,
#BPMCHANGE 141.83
#SCROLL 1
20200105,
#BPMCHANGE 141.77
000000000000000000000000000000000008000000000000, //9
#MEASURE 8/4
#BPMCHANGE 284
#SCROLL 0.5
#GOGOSTART
0110,
#BPMCHANGE 284.36
10010000,
#BPMCHANGE 284
0110,
20020000,
0110,
10010000,
01
#BPMCHANGE 285.06
10,
#BPMCHANGE 283.47
3003003000000000, //17
#GOGOEND
#MEASURE 4/4
#BPMCHANGE 142
#SCROLL 1
11,
2220,
11,
2220,
1110,
1110,
2220,
1130, //25
1122,
1110,
1120,
1120,
3434,
3430,
1130,
2240, //33
0101,
33,
0101,
3330,
1111,
1111,
3333,
33000000, //41
#MEASURE 8/4
#BPMCHANGE 284
#SCROLL 0.5
#GOGOSTART
1210,
10010000,
1210,
20020000,
1212,
1210,
20200105,
000000000000000000000000000000000000000000000008000000000000000000000000000000000000000000000000, //49
1210,
10010000,
1210,
20020000,
1212,
1210,
12
#BPMCHANGE 282.91
10,
30030030, //57
#BPMCHANGE 285.1
500000000000000000000000000000000000000000000000000000000000000000000008000000000000000000000000,
600000000000000000000000000000000000000000000000
#BPMCHANGE 284
000000000000000000000008000000000000000000000000,
33,
44,
3330,
4440,
3000300030000006,
000000000000000000000000000000000000000000000000
#BPMCHANGE 278.18
#SCROLL 0.51
000000000000000000000008000000000000000000000000, //65
#BPMCHANGE 285.49
#SCROLL 0.5
11,
2200,
#BPMCHANGE 284
1110,
2002002000000000,
1210,
1210,
1212,
30030030, //73
#GOGOEND
#MEASURE 4/4
#BPMCHANGE 142
#SCROLL 1
5,
000000000000000008000000000000000000100000000000,
5,
000000000000000000000000000008000000000000000000,
1111,
1111,
1111,
11, //81
#MEASURE 8/4
#BPMCHANGE 284
#SCROLL 0.5
#GOGOSTART
1210,
10010000,
1210,
2002
#BPMCHANGE 282.54
0500, //85
#BPMCHANGE 284
0,
000000000000000000000000000000000000000000000000
#BPMCHANGE 285.38
000000000000000000000008000000000000000000000000,
#GOGOEND
#MEASURE 4/4
#BPMCHANGE 142
#SCROLL 1
3,
0, //89
#END
