//TJADB Project
TITLE:Jibun RESTART -Anime Version-
TITLEJA:自分REST@RT
SUBTITLE:--Hidekazu Tanaka feat. 765PRO ALLSTARS/THE iDOLM@STER
SUBTITLEJA:別歌唱バージョン ‐ TVアニメ13話
BPM:171
WAVE:Jibun RESTART -Anime Version-.ogg
OFFSET:-1.713
DEMOSTART:24.169

COURSE:Edit
LEVEL:9
BALLOON:
SCOREINIT:420,1260
SCOREDIFF:103
#START
#SCROLL 2
3,
#SCROLL 1
0,
2,
22,
20202022,
02202020,
20220202,
#BPMCHANGE 170.13
#SCROLL 2
222022202220
#GOGOSTART
#SCROLL 4
4000, //8
#GOGOEND
#BPMCHANGE 171
#SCROLL 1
1220
#GOGOSTART
1020
#GOGOEND
1220
#GOGOSTART
1022,//9
#GOGOEND
1220
#GOGOSTART
1022
#GOGOEND
1020
#GOGOSTART
1012,//10
#GOGOEND
1020
#GOGOSTART
1220
#GOGOEND
1220
#GOGOSTART
1220,//11
#GOGOEND
4000
#GOGOSTART
4000
#GOGOEND
1220
#GOGOSTART
1012,//12
#GOGOEND
1020
#GOGOSTART
1020
#GOGOEND
1220
#GOGOSTART
1022,//13
#GOGOEND
1220
#GOGOSTART
1022
#GOGOEND
1020
#GOGOSTART
1012,//14
#GOGOEND
1020
#GOGOSTART
1220
#GOGOEND
1220
#GOGOSTART
1220,//15
#GOGOEND
1011
#GOGOSTART
2021
#GOGOEND
1212
#GOGOSTART
1011,//16
#GOGOEND
1000201110102010,
1110201000102010,
2000201110102010,
1022201000201020,
1000202210102010,
1110201000222010,
1010202010112000,
#GOGOSTART
500000000000000000000008000000000000100000100000, //24
#GOGOEND
1000201110102010,
1110201000102010,
2000201110102010,
1022201000201020,
1000202210102010,
1110201000222010,
1010202010222000,
#GOGOSTART
500000000000000000000008000000000000100000100000, //32
#GOGOEND
1220120212201022,
1220120212201021,
1220120211201021,
1220120211201022,
1220112211221122,
1222122212221222,
1122112212222000,
#SCROLL 2
#GOGOSTART
3333, //40
#GOGOEND
#SCROLL 1
1220120212201022,
1220122212201021,
1220120211201021,
1220122211201022,
1220112211221122,
1122112212221222,
500000000000000000000000000000000008000000000000,
#SCROLL 2
333000
#GOGOSTART
#SCROLL 4
40, //48
#SCROLL 1
1220102212201012,
1120102211201022,
1220102212201012,
1220202202202020,
1220102212201012,
1120102211201022,
1220102212121012,
1220202202202020, //56
1122201120102210,
1122201120404000,
1222201220202210,
1222201220404000,
1111222211112222,
1111222211112222, //62
#GOGOEND
1210
#SCROLL 4
#GOGOSTART
4000
#GOGOEND
#SCROLL 1
1210
#SCROLL 4
#GOGOSTART
4000, //63
#GOGOEND
#SCROLL 1
1210
#SCROLL 4
#GOGOSTART
40004000
#GOGOEND
4000, //64
#SCROLL 1
#GOGOSTART
1220102212201012,
1120102211201022,
1220102212201012,
1220202202202020,
1220102212201012,
1120102211201022,
1220102212121012,
1220202202202020, //72
1122201120102210,
1122201120404000,
1222201220202210,
1222201220404000,
1122202112121210,
#SCROLL 2
33
#GOGOEND
30
#SCROLL 1
00
#SCROLL 4
#GOGOSTART
40,
#SCROLL 1
300000000000600000000000000000000000000008000000,
200000000000200000000200100200100200100200101010, //80
#GOGOEND
2,
0,
0, //83
#END

COURSE:Oni
LEVEL:7
BALLOON:
SCOREINIT:460,1550
SCOREDIFF:120
#START
#SCROLL 2
3,
#SCROLL 1
0,
2,
22,
20202022,
02202020,
20220202,
#BPMCHANGE 170.13
222022202220
#GOGOSTART
4000, //8
#GOGOEND
#BPMCHANGE 171
1020
#GOGOSTART
1020
#GOGOEND
1020
#GOGOSTART
1022,//9
#GOGOEND
12
#GOGOSTART
12
#GOGOEND
10
#GOGOSTART
10,//10
#GOGOEND
1020
#GOGOSTART
1120
#GOGOEND
1120
#GOGOSTART
1020,//11
#GOGOEND
12
#GOGOSTART
10
#GOGOEND
20
#GOGOSTART
10,//12
#GOGOEND
1020
#GOGOSTART
1020
#GOGOEND
1020
#GOGOSTART
1022,//13
#GOGOEND
12
#GOGOSTART
12
#GOGOEND
10
#GOGOSTART
10,//14
#GOGOEND
1020
#GOGOSTART
1120
#GOGOEND
1120
#GOGOSTART
1020,//15
#GOGOEND
1020
#GOGOSTART
2001
#GOGOEND
1010
#GOGOSTART
1011,//16
#GOGOEND
10210120,
1110201000102010,
00210120,
1022201000102010,
00210120,
1110201000102010,
11201120,//23
#GOGOSTART
34343434,//24
#GOGOEND
10210121,
1110201000102010,
00210121,
1022201000102010,
00210121,
1110201000102010,
1010200010222000,//31
#GOGOSTART
34343434,//32
#GOGOEND
1000100011102010,
0011201000112010,
2000200011102010,
0022201000222010,
0000222011102220,
1110222011102220,
10211000,//39
#GOGOSTART
3333,//40
#GOGOEND
1000100011102010,
0011201110112010,
2000200011102010,
0011202220112010,
0000222011102220,
1110222011102220,
500000000000000000000000000000000008000000000000,
333000
#GOGOSTART
40, //48
1020112011201000,
1020122012201000,
1020112011201000,
34343434,
1020112011201000,
1020122012201000,
1020112011201000,
34343434,
1110201000102010,
1110201000404000,
2220102000201020,
1110201000404000,
1110222011102220,
1110222011102220,//62
#GOGOEND
11
#GOGOSTART
40
#GOGOEND
11
#GOGOSTART
40, //63
#GOGOEND
11
#GOGOSTART
4040
#GOGOEND
40, //64
#GOGOSTART
1020112011201000,
1020122012201000,
1020112011201000,
34343434,
1020112011201000,
1020122012201000,
1020112011201000,
34343434, //72
1110201000102010,
1110201000404000,
2220102000201020,
1110201000404000,
1110201110202220,//77
33
#GOGOEND
3000
#GOGOSTART
40,
600000000000000000000000000000000000000000000008,
0, //80
#GOGOEND
#SCROLL 2
3,
#SCROLL 1
0,
0, //83
#END

COURSE:Hard
LEVEL:4
BALLOON:13
SCOREINIT:490,2350
SCOREDIFF:138
#START
3,
0,
0,
0,
9,
0,
0900000000008000,
#BPMCHANGE 170.13
000
#GOGOSTART
4, //8
#GOGOEND
#BPMCHANGE 171
10
#GOGOSTART
10
#GOGOEND
10
#GOGOSTART
12,//9
#GOGOEND
02
#GOGOSTART
12
#GOGOEND
10
#GOGOSTART
10,//10
#GOGOEND
10
#GOGOSTART
12
#GOGOEND
12
#GOGOSTART
12,//11
#GOGOEND
02
#GOGOSTART
12
#GOGOEND
10
#GOGOSTART
10,//12
#GOGOEND
10
#GOGOSTART
10
#GOGOEND
10
#GOGOSTART
12,//13
#GOGOEND
02
#GOGOSTART
12
#GOGOEND
10
#GOGOSTART
10,//14
#GOGOEND
10
#GOGOSTART
12
#GOGOEND
12
#GOGOSTART
12,//15
#GOGOEND
02
#GOGOSTART
20
#GOGOEND
33
#GOGOSTART
30,//16
#GOGOEND
10201120,
10210121,
00201120,
10210121,
00201120,
10210121,
20201120,//23
#GOGOSTART
3333,//24
#GOGOEND
10201120,
10210121,
00201120,
10210121,
00201120,
10210121,
20201220,//31
#GOGOSTART
3333,//32
#GOGOEND
10101121,
01210121,
20201021,
01210121,
0212,
1212,
10211000,//39
#GOGOSTART
3333,//40
#GOGOEND
10101121,
01210121,
20201021,
01210121,
0212,
1212,
500000000000000000000000000000000008000000000000,
333000
#GOGOSTART
40, //48
10101012,
10121220,
10101212,
3333,
10101012,
10121220,
10101212,
3333,
11210121,
21010440,
11210212,
12010440,
11221120,
11221220,//62
#GOGOEND
11
#GOGOSTART
40
#GOGOEND
11
#GOGOSTART
40,//63
#GOGOEND
11
#GOGOSTART
4040
#GOGOEND
40,//64
#GOGOSTART
10101012,
10121220,
10101212,
3333,
10101012,
10121220,
10101212,
3333, //72
11210121,
21010440,
11210212,
12010440,
11210120,//77
33
#GOGOEND
3000
#GOGOSTART
40,
600000000000000000000000000000000000000000000008,
0,//80
#GOGOEND
3,
0,
0, //83
#END

COURSE:Normal
LEVEL:4
BALLOON:13
SCOREINIT:650,3700
SCOREDIFF:198
#START
3,
0,
0,
0,
9,
0,
0900000000008000,
#BPMCHANGE 170.13
000
#GOGOSTART
4,//8
#GOGOEND
#BPMCHANGE 171
0
#GOGOSTART
3
#GOGOEND
0
#GOGOSTART
3,//9
#GOGOEND
0
#GOGOSTART
3
#GOGOEND
0
#GOGOSTART
3,//10
#GOGOEND
0
#GOGOSTART
3
#GOGOEND
0
#GOGOSTART
3,//11
#GOGOEND
0
#GOGOSTART
3
#GOGOEND
0
#GOGOSTART
3,//12
#GOGOEND
0
#GOGOSTART
3
#GOGOEND
0
#GOGOSTART
3,//13
#GOGOEND
0
#GOGOSTART
3
#GOGOEND
0
#GOGOSTART
3,//14
#GOGOEND
600000000000
#GOGOSTART
000000000000
#GOGOEND
000000000008
#GOGOSTART
000000000000,//15
#GOGOEND
3
#GOGOSTART
3
#GOGOEND
3
#GOGOSTART
3,//16
#GOGOEND
0202,
1212,
0202,
1212,
0202,
1212,
1122,//23
#GOGOSTART
3333,//24
#GOGOEND
0202,
1212,
0202,
1212,
0202,
1212,
1122,//31
#GOGOSTART
3333,//32
#GOGOEND
500000000000000000000008000000000000400000000000,
500000000000000000000008000000000000400000000000,
500000000000000000000008000000000000400000000000,
500000000000000000000008000000000000400000000000,
500000000000000000000008000000000000400000000000,
500000000000000000000008000000000000400000000000,
500000000000000000000008000000000000400000000000,//39
#GOGOSTART
3333,//40
#GOGOEND
1114,
1114,
1114,
1114,
1114,
1114,
500000000000000000000000000000000008000000000000,
333000
#GOGOSTART
40, //48
6,
0,
000000000000000000000000000000000008000000000000,
3333,
6,
0,
000000000000000000000000000000000008000000000000,
3333, //56
0202,
00200330,
0202,
00200330,
1122,
1122,//62
#GOGOEND
11
#GOGOSTART
40
#GOGOEND
11
#GOGOSTART
40,//63
#GOGOEND
11
#GOGOSTART
4040
#GOGOEND
40,//64
#GOGOSTART
6,
0,
000000000000000000000000000000000008000000000000,
3333,
6,
0,
000000000000000000000000000000000008000000000000,
3333,
0202,
00200330,
0202,
00200330,
1110,//77
33
#GOGOEND
3000
#GOGOSTART
40,
600000000000000000000000000000000000000000000008,
0,//80
#GOGOEND
3,
0,
0, //83
#END

COURSE:Easy
LEVEL:3
BALLOON:3,3,3,3,3,3
SCOREINIT:470,4270
SCOREDIFF:120
#START
3,
0,
0,
0,
0,
0,
0,
#BPMCHANGE 170.13
000
#GOGOSTART
4,//8
#GOGOEND
#BPMCHANGE 171
0
#GOGOSTART
3
#GOGOEND
0
#GOGOSTART
3,//9
#GOGOEND
0
#GOGOSTART
3
#GOGOEND
0
#GOGOSTART
3,//10
#GOGOEND
0
#GOGOSTART
3
#GOGOEND
0
#GOGOSTART
3,//11
#GOGOEND
0
#GOGOSTART
3
#GOGOEND
0
#GOGOSTART
3,//12
#GOGOEND
0
#GOGOSTART
3
#GOGOEND
0
#GOGOSTART
3,//13
#GOGOEND
0
#GOGOSTART
3
#GOGOEND
0
#GOGOSTART
3,//14
#GOGOEND
600000000000
#GOGOSTART
000000000000
#GOGOEND
000000000008
#GOGOSTART
000000000000,//15
#GOGOEND
3
#GOGOSTART
3
#GOGOEND
3
#GOGOSTART
3,//16
#GOGOEND
0202,
0202,
0202,
0202,
0202,
0202,
0202,//23
#GOGOSTART
3333,//24
#GOGOEND
0202,
0202,
0202,
0202,
0202,
0244,
33,//31
#GOGOSTART
3333,//32
#GOGOEND
500000000000000000000008000000000000400000000000,
500000000000000000000008000000000000400000000000,
500000000000000000000008000000000000400000000000,
500000000000000000000008000000000000400000000000,
500000000000000000000008000000000000400000000000,
500000000000000000000008000000000000400000000000,
500000000000000000000008000000000000400000000000,//39
#GOGOSTART
3333,//40
#GOGOEND
700000000000080000400000,
700000000000080000400000,
700000000000080000400000,
700000000000080000400000,
700000000000080000400000,
700000000000080000400000,
500000000000000000000000000000000008000000000000,
333000
#GOGOSTART
40, //48
6,
0,
000000000000000000000000000000000008000000000000,
3333,
6,
0,
000000000000000000000000000000000008000000000000,
3333, //56
0202,
00200330,
0202,
00200330,
0202,
0202,//62
#GOGOEND
0
#GOGOSTART
3
#GOGOEND
0
#GOGOSTART
3,//63
#GOGOEND
0
#GOGOSTART
33
#GOGOEND
3,//64
#GOGOSTART
6,
0,
000000000000000000000000000000000008000000000000,
3333,
6,
0,
000000000000000000000000000000000008000000000000,
3333, //72
0202,
00200330,
0202,
00200330,
0202,//77
33
#GOGOEND
3000
#GOGOSTART
40,
600000000000000000000000000000000000000000000008,
0,//80
#GOGOEND
3,
0,
0, //83
#END
