//TJADB Project
TITLE:ONLY MY NOTE -VitaMS Chart-
TITLEJA:ONLY MY NOTE
SUBTITLE:--Tetsuya Uchida feat. 765PRO ALLSTARS/THE iDOLM@STER ONE FOR ALL
SUBTITLEJA:VitaMS譜面 「アイドルマスター」より
BPM:182
WAVE:ONLY MY NOTE.ogg
OFFSET:-1.636
DEMOSTART:67.075
SCENEPRESET:IMAS

COURSE:Oni
LEVEL:6
BALLOON:
SCOREINIT:540,1830
SCOREDIFF:140
#START
10101015,
000000000000000000000008000000200000000000200000,
20202025,
000000000000000000000008000000100000200000200000,
10101011,
0222,
23,
33, //8
#GOGOSTART
1010201000112010,
01220220,
1010201000112010,
01220206,
000000000000000000000000000000000000000000000008,
0444,
30003003,
03334400, //16
#GOGOEND
1000200210102010,
0010202210102000,
1000200210102010,
0010202210201000,
1000201210102000,
1010202210102000,
5,
000000000000000000000008000000000000000000000000, //24
1000200210102010,
0010202210102000,
1000200210102010,
0010202210201000,
1000201210102000,
1010202210102000,
5,
000000000000000000000008000000000000000000000000, //32
10212020,
1222,
10212020,
1222,
10212021,
1000201020002022,
1000201010222010,
1110201000202220, //40
1010222010102010,
1010222010102010,
1010222010102010,
1010222010102000,
1011201000112010,
0011201000112000,
5,
000008000000000000000000300000000000300000000000,
33003300,
33330340, //50
#GOGOSTART
1110200011102010,
01210122,
1110200011102010,
01210122,
1000200210102010,
0010202210102000,
1000200210102010,
01210122, //58
1110200011102010,
01212020,
1110200010222010,
01210122,
1000200210102010,
0010202210102000,
1000200030002220,
3000222030002220, //66
6,
000000000000000000000000000000000008000000000000,
1010201000112010,
01220206,
000000000000000000000000000000000000000000000008,
0444,
30403043,
02224400, //74
#GOGOEND
20002022,
0,
20002022,
0,
20002022,
0222,
2000200022202030,
0022203000102020, //82
#GOGOSTART
1110200011102010,
0010201022202220,
1110200010222010,
01210122,
1000200210102010,
0010202210102000,
1000200030002220,
3000222030002220, //90
600000000000000000000000000000000000000000000008,
#GOGOEND
0,
0, //93
#END

COURSE:Hard
LEVEL:6
BALLOON:6
SCOREINIT:690,2730
SCOREDIFF:188
#START
10101015,
000000000000000000000008000000000000000000000000,
20202025,
000000000000000000000008000000000000000000000000,
10101011,
0222,
23,
33, //8
#GOGOSTART
10210121,
01210220,
10210121,
01210206,
000000000000000000000000000000000000000000000008,
0444,
30003003,
00004400, //16
#GOGOEND
10201021,
01201120,
10201021,
01201000,
10210020,
10210000,
5,
000000000000000000000008000000000000000000000000, //24
10201021,
01221120,
10201021,
01201000,
10210020,
20212020,
11,
1111, //32
10212020,
1222,
10212020,
1222,
10212021,
10212020,
5,
000000000008000000000000000000000000000000000000, //40
10210120,
10210120,
10210120,
10210120,
11210121,
01210120,
5,
000008000000000000000000300000000000300000000000,
44004400,
44440000, //50
#GOGOSTART
1110200011102050,
000000000000000000000008000000000000000000000000,
1110200011102050,
000000000000000000000008000000000000000000000000,
10201021,
01201120,
10201121,
01210000, //58
1110200011102050,
000000000000000000000008000000000000000000000000,
1110200010222050,
000000000000000000000008000000000000000000000000,
10201021,
01201020,
13,
33, //66
6,
000000000000000000000000000000000008000000000000,
11210121,
01210206,
000000000000000000000000000000000000000000000008,
0444,
30003003,
00004400, //74
#GOGOEND
20000022,
0,
20000022,
0,
20002022,
0222,
2270,
8, //82
#GOGOSTART
1110200011102010,
01201122,
1000200010222010,
01210122,
10201021,
01201020,
13,
33, //90
600000000000000000000000000000000000000000000008,
#GOGOEND
0,
0, //93
#END

COURSE:Normal
LEVEL:5
BALLOON:5,5
SCOREINIT:780,4130
SCOREDIFF:258
#START
0,
0,
0,
0,
1,
1011,
13,
33, //8
#GOGOSTART
6,
000000000000000000000000000008000000000000000000,
0303,
00300036,
0,
000000000008000000000000000000000000300000000000,
0303,
00304400, //16
#GOGOEND
00101001,
01101000,
10101003,
0001,
1102,
2200,
5,
000000000000000000000008000000000000000000000000, //24
00101001,
01101000,
10101003,
0001,
1102,
2200,
1011,
2222, //32
10011020,
10011020,
10011020,
10011020,
10011020,
10011020,
500000000000000000000008000000000000200000000000,
500000000000000000000008000000000000200000000000, //40
0101,
0101,
0202,
0202,
70000807,
08,
5,
000008000000000000000000300000000000300000000000,
44004400,
44440000, //50
#GOGOSTART
10101003,
0,
20202004,
0,
10001011,
0222,
10101003,
0, //58
10101003,
0,
20202004,
0,
10001011,
0222,
23,
33, //66
6,
000000000000000000000000000008000000000000000000,
0303,
0303,
0303,
0303,
0303,
00304400, //74
#GOGOEND
20000002,
0,
20000002,
0,
20000002,
0,
20202003,
0, //82
#GOGOSTART
10101003,
0,
20202004,
0,
10001011,
0222,
23,
33, //90
600000000000000000000000000000000000000000000008,
#GOGOEND
0,
0, //93
#END

COURSE:Easy
LEVEL:3
BALLOON:4,4
SCOREINIT:490,4620
SCOREDIFF:155
#START
0,
0,
0,
0,
1,
1,
13,
33, //8
#GOGOSTART
6,
000000000000000000000000000008000000000000000000,
0303,
00300036,
0,
000000000008000000000000000000000000300000000000,
0303,
00304400, //16
#GOGOEND
0101,
0111,
0101,
0101,
1102,
2200,
5,
000000000000000000000008000000000000000000000000, //24
0101,
0111,
0101,
0101,
1102,
2200,
11,
1111, //32
1012,
1012,
1012,
1012,
1012,
1012,
500000000000000000000008000000000000200000000000,
500000000000000000000008000000000000200000000000, //40
0101,
0101,
0202,
0202,
70000807,
08,
5,
000008000000000000000000300000000000300000000000,
44004400,
44440000, //50
#GOGOSTART
10101003,
0,
10101003,
0,
0101,
0202,
00101003,
0, //58
10101003,
0,
10101003,
0,
0101,
0202,
23,
33, //66
6,
000000000000000000000000000008000000000000000000,
0303,
0303,
0303,
0303,
0303,
00304400, //74
#GOGOEND
20000002,
0,
20000002,
0,
20000002,
0,
20202003,
0, //82
#GOGOSTART
10101003,
0,
10101003,
0,
0101,
0202,
23,
33, //90
600000000000000000000000000000000000000000000008,
#GOGOEND
0,
0, //93
#END
