//TJADB Project
TITLE:Inu no Omawari-san
TITLEJA:いぬのおまわりさん
SUBTITLE:--Tokyo Zidou Gasshoudan
BPM:112
WAVE:Inu no Omawari-san.ogg
OFFSET:-8.885
DEMOSTART:8.750

COURSE:Oni
LEVEL:7
SCOREINIT:780
SCOREDIFF:200
#START
#SCROLL 2
1011202010112220,
1020102030002222,
1010102010112020,
1010221030001010,
1022202010001010,
21211011,
1022202010001010,
2010201020002222,
3000300030302222,
3000300030302222,
1000101010111020,
11123220,//12
#GOGOSTART
100100200000100100200000500008000000400000000000,
100000100000200000100000500008000000400000000000,
1012202110122022,
100000200000100000200000100000500000000008000000,
300000400000300000400000300000600000000000000008,//17
#BARLINEOFF
#SCROLL 1
#GOGOEND
,
#BARLINEON
,
1022122210221222,
1011101010404040,
1010222010102220,
1020102030202222,
1022102210221222,
1022102030003030,
3022202010222020,
1121212040003030,
3022202010222020,
1121212030202222,
1020302030302211,
2010401040402211,
2022101212111022,
1022102210202220,//33
#GOGOSTART
3020302030222020,
1010201110204000,
1022202010122020,
3020302030302220,
300000200000300000200000300000600000000000000008,
#SCROLL 2
0430,//39
#GOGOEND
#END

COURSE:Hard
LEVEL:4
SCOREINIT:900
SCOREDIFF:230
#START
11221122,
1010101010002220,
11121112,
12121011,
10011011,
21211000,
0022202000222020,
02022000,
30303300,
40404400,
1000101010111010,
12121000,//12
#GOGOSTART
1114,
11211040,
11021102,
10101100,
30303300,//17
#GOGOEND
11112222,
11112222,
1111,
11123000,
11221122,
1010101010002220,
11121112,
12121000,
0022202000222020,
02022011,
10011011,
21211000,
30303300,
40404400,
1000101010111010,
12121000,//33
#GOGOSTART
1114,
11211040,
11021102,
10101100,
300000000000300000000000300000600000000000000008,
0230,//39
#GOGOEND
,
,
#END

COURSE:Normal
LEVEL:2
BALLOON:5
SCOREINIT:1240
SCOREDIFF:400
#START
1110,
10111000,
1110,
10111000,
11,
2220,
11,
2220,
1110,
3330,
11,
1210,//12
#GOGOSTART
1012,
1012,
11,
2220,
4440,//17
#GOGOEND
12,
12,
1111,
1130,
1110,
10111000,
1110,
10111000,
11,
500000000000000000000008000000000000000000000000,
11,
7008,
1110,
3330,
11,
1210,//33
#GOGOSTART
1012,
1012,
11,
3330,
300000000000300000000000600000000000000000000008,
0230,//39
#GOGOEND
,
,
#END

COURSE:Easy
LEVEL:1
SCOREINIT:1050
SCOREDIFF:480
#START
11,
1110,
11,
1110,
11,
22,
11,
22,
1110,
1110,
12,
1110,//12
#GOGOSTART
12,
12,
11,
1110,
1110,//17
#GOGOEND
1,
1,
11,
500000000000000000000008000000000000000000000000,
11,
1110,
11,
1110,
11,
500000000000000000000008000000000000000000000000,
11,
7008,
1110,
1110,
12,
1110,//33
#GOGOSTART
12,
12,
11,
3330,
300000000000300000000000600000000000000000000008,
03,//39
#GOGOEND
,
,
#END
