//TJADB Project
TITLE:Negaigoto☆Puzzle
TITLEJA:ねがいごと☆ぱずる
SUBTITLE:--Takayuki Aihara feat. Ayumi
BPM:155
WAVE:Negaigoto Puzzle.ogg
OFFSET:-2.275
DEMOSTART:71.363

COURSE:Oni
LEVEL:8
SCOREINIT:550
SCOREDIFF:148
#START
,
,
,
,
,
3232,
3232,
#SCROLL 1.05
1021012010210120,
2012021020120210,
2112112021121120,
3030030030222000,
1001200000201010,
0010200022102000,
1001200011201010,
0010201011201120,
1001200022102000,
1001200022102000,
1001201000112000,
2210201011201120,
1001200011201010,
0010200012201220,
1001200011201010,
0010201011201220,
1001201022102000,
1001201022102000,
1001201000112000,
2210201000211020,
1010201100102000,
1010201100102000,
1010210010102100,
1010201100404040,
1010201102102000,
1010201102102000,
1010201110303030,
0010201022102210,
1010201100102000,
1010201100102000,
1010210010102100,
1010201110404040,
300000000300000000300000000000000000000000202000,
2222,
300000000300000000300000000000000000000000202000,
2222,
1010201100102110,
33000000,//45
#GOGOSTART
1010210102112010,
1010110210201120,
1010210102112010,
1010110210201120,
1010201101102000,
1010201101102000,
1010201102102011,
1020112010210110,
1010210102112010,
1010110210201120,
1010211200303030,
0020112101102000,
1010201102102000,
1010201102102000,
1010201202102011,
1020110210112110,
1010211202102010,
1010211202102010,
1010211200303030,
0020112102102010,
1010201202102000,
1010201202102000,
1010211202112010,
1011211021120210,//69
#GOGOEND
1021012010210120,
2012021020120210,
#BPMCHANGE 150
#SCROLL 1.08
2
#BPMCHANGE 138
#SCROLL 1.17
2
#BPMCHANGE 127
#SCROLL 1.28
2
#BPMCHANGE 115
#SCROLL 1.41
2,
4,
#END

COURSE:Hard
LEVEL:6
SCOREINIT:540
SCOREDIFF:150
#START
,
,
,
,
,
33,
33,
#SCROLL 1.05
3003003040040040,
3003003040040040,
600000000000000000000000000000000000000000008000,
3030030030000000,
10200211,
00200211,
00200121,
0010200020111020,
01200211,
01200211,
01200020,
1110201000102000,
10200211,
00202120,
10200211,
0010200020111020,
01200211,
01200211,
01200020,
1110201000111020,
10200121,
10201120,
10200121,
10200444,
10201120,
10201120,
10200333,
01210120,
10200121,
10201120,
10200121,
10200444,
3003003000000000,
2222,
3003003000000000,
2222,
10201120,
33000000,//45
#GOGOSTART
1000201100102000,
1000201100201020,
1000201100102000,
1000201100201020,
10201120,
10201120,
1000201100102010,
1000201000201110,
1000201100102000,
1000201100201020,
1000201100303030,
0000201100201020,
1000201100102000,
1000201100201020,
1000201100102010,
1000201000201110,
1000201101102000,
1000201101102000,
1000201100303030,
0000201100102010,
1000201101102000,
1000201101102000,
1000201102102000,
1000201110201020,//69
#GOGOEND
3003003040040040,
3003003040040040,
#BPMCHANGE 150
#SCROLL 1.08
0
#BPMCHANGE 138
#SCROLL 1.17
0
#BPMCHANGE 127
#SCROLL 1.28
0
#BPMCHANGE 115
#SCROLL 1.41
0,
4,
#END

COURSE:Normal
LEVEL:3
BALLOON:8,8,6,6,19
SCOREINIT:950
SCOREDIFF:260
#START
,
,
,
,
,
33,
33,
#SCROLL 1.05
1212,
1212,
7,
8,
1001,
1001,
12,
1120,
1102,
1102,
1102,
11,
1001,
1001,
12,
1120,
1102,
1102,
1102,
11,
500000000000000000000000000008000000000000000000,
12,
11,
500000000000000000000000000008000000000000000000,
12,
1120,
7,
8,
500000000000000000000000000008000000000000000000,
12,
11,
500000000000000000000000000008000000000000000000,
3,
7008,
3,
7008,
1212,
3,//45
#GOGOSTART
1202,
1110,
1202,
1110,
1202,
1202,
11,
1101,
1202,
1110,
10200303,
0110,
1202,
1202,
11,
1011,
1202,
1120,
10200303,
0112,
1202,
1202,
11,
1212,//69
#GOGOEND
9,
09,
#BPMCHANGE 150
#SCROLL 1.08
8
#BPMCHANGE 138
#SCROLL 1.17
0
#BPMCHANGE 127
#SCROLL 1.28
0
#BPMCHANGE 115
#SCROLL 1.41
0,
4,
#END

COURSE:Easy
LEVEL:3
BALLOON:6,6,5,5,7,13
SCOREINIT:910
SCOREDIFF:300
#START
,
,
,
,
,
33,
33,
#SCROLL 1.05
1110,
1110,
7,
8,
1,
11,
1,
11,
12,
12,
1,
11,
1,
11,
1,
11,
12,
12,
1,
11,
500000000000000000000000000008000000000000000000,
1,
11,
500000000000000000000000000008000000000000000000,
12,
12,
7,
8,
500000000000000000000000000008000000000000000000,
1,
11,
500000000000000000000000000008000000000000000000,
3,
7008,
3,
7008,
11,
3,//45
#GOGOSTART
12,
1110,
12,
1110,
1001,
1001,
11,
1,
12,
1110,
12,
1110,
1001,
1001,
11,
1011,
12,
1120,
17,
00000800,
1001,
1001,
12,
1011,//69
#GOGOEND
9,
09,
#BPMCHANGE 150
#SCROLL 1.08
8
#BPMCHANGE 138
#SCROLL 1.17
0
#BPMCHANGE 127
#SCROLL 1.28
0
#BPMCHANGE 115
#SCROLL 1.41
0,
4,
#END
