//TJADB Project
TITLE:Jikuuchou Sousa 2-ka
TITLEJA:時空庁捜査2課
SUBTITLE:--Kawagen Collagen feat. SaChi a.k.a. Harineko
SUBTITLEJA:feat. 沙知(ハリネコ)
BPM:200
WAVE:Jikuuchou Sousa 2-ka.ogg
OFFSET:-1.811
DEMOSTART:39.289

COURSE:Oni
LEVEL:8
SCOREINIT:390
SCOREDIFF:98
#START
1000221020102010,
1011201000111010,
1000221020102020,
1011201000101110,
1000221020102210,
1011201000111010,
3000202220200020,
3000202210102222,
1000201110102010,
0011201000102000,
1000201110102000,
1011201000102010,
1000201110102000,
1022202000202222,
1011201000222010,
0022201110102222,
1000221010002210,
1011201000102000,
1000221020102210,
1011201000102000,
1000221020102210,
1000221000102000,
1000221020200022,
2011202210100010,
1020002210200022,
1022202000100010,
1000202210200022,
1022202000100010,
1010221010102000,
1010221010102000,
2020102000222010,
1000200020002022,//32
#GOGOSTART
1000221010102000,
1000221010200020,
1000221010200020,
1000211120102000,
1000201011101020,
1110201022201030,
0011200030112030,
0000201020211020,
1000221010200020,
1000221010200020,
1000221010200020,
1000112000200020,
1000201011102010,
2220102011102030,
0011200030112030,
0000401120004000,
1020201011202010,
0011221120002010,
1020201011202010,
0011221120002010,
1011201000200011,
2000111120222210,
2222101111202210,
3000202220222210,//56
#GOGOEND
20000222,
2000002000200200,
20020222,
2000004000400200,
2000000000222222,
2000002000200200,
32230232,
2030302030222010,
1012202000100020,
2012202000200010,
1012202000100020,
2012202000200010,
1110201020102012,
2210201020102011,
1020001000122010,
3000200020002022,//72
#GOGOSTART
1000221010102000,
1020221010202020,
1020221010202020,
1000211120102000,
1000201011101020,
1110201022201030,
0011200030112030,
0000201020211020,
1000221010200020,
1000221010200020,
1000221010200020,
1000211120102000,
1000201011102010,
2220102011102030,
0011200030112030,
0000401120004000,
1020201011202010,
0011221120002010,
1020201011202010,
0011122210002010,
1111201040104012,
1011201020222210,
1011202000101012,
2010001010221010,
0010202110100020,
2110300000000000,
#END

COURSE:Hard
LEVEL:7
SCOREINIT:330
SCOREDIFF:100
#START
3222,
100000100000200000500000000000000008000000000000,
1222,
11210110,
3222,
100000100000200000500000000000000008000000000000,
30202202,
2000100011100000,
10210121,
11201020,
10210120,
11210120,
10210120,
1010201000102220,
1000102220100010,
0010002220201000,
10211021,
11210120,
1000201010002220,
11210120,
10211021,
1000222000102000,
1000200010100022,
20101100,
12020202,
2011101000100010,
10222202,
2011101000100010,
10201120,
11201120,
2022201000100010,
1222,//32
#GOGOSTART
1000201110002000,
1000201110200020,
1000201110200020,
1000222010102000,
1000201110002000,
1000200011102030,
03303303,
0000100010111010,
1000201110200020,
1000201110200020,
1000201110200020,
1000222010200020,
1000201110002000,
1000200011102030,
03303303,
0000100010111000,
1022201010202010,
01011020,
1022201010202010,
02022010,
1022201010202010,
20101100,
2022201000100010,
3,//56
#GOGOEND
2,
2000002000200200,
2,
2000002000200200,
2,
2000002000100100,
32230232,
2030102030222010,
12020202,
2011101000100010,
10222202,
2011101000100010,
10121120,
12102022,
2022201000100010,
1222,//72
#GOGOSTART
1000201110002000,
1020201110200020,
1020201110200020,
1000222010102000,
1000201110002000,
1000200011102030,
03303303,
0000100010111010,
1000201110200020,
1000201110200020,
1000201110200020,
1000222010102000,
1000201110002000,
1000200011102030,
0011102220403030,
0000101110101000,
1020201110202010,
01011020,
1020201110202010,
02022012,
1110100040004020,
20201100,
2022202000101011,
1010002020222020,
0010101110100020,
2220300000000000,
,
#END

COURSE:Normal
LEVEL:6
#START
3222,
20010100,
3222,
20010100,
3222,
20010100,
600000000000000000000000000000000000000000000008,
,
10200110,
10200110,
10200110,
10200220,
10200110,
10200110,
10110101,
01010000,
0111,
10010000,
0111,
10020200,
0111,
10020000,
00101101,
10101100,
11,
100000100000000000500000000000000008000000000000,
11,
100000100000000000500000000000000008000000000000,
1212,
1212,
11010101,
3,//32
#GOGOSTART
1211,
10201101,
10201101,
1222,
10011000,
00101013,
03303303,
02,
1211,
10201101,
10201101,
1222,
10011000,
00101013,
03303303,
02,
10101001,
000000500000000000000008000000000000000000000000,
20202002,
000000500000000000000008000000000000000000000000,
10100201,
100000000000100000000000500000000008000000000000,
11010101,
3,//56
#GOGOEND
02,
02,
02,
0022,
02,
02,
30030030,
03003000,
10020201,
10020201,
10020201,
10020201,
1212,
1212,
11010101,
3,//72
#GOGOSTART
1211,
10201101,
10201101,
1222,
10011000,
10101013,
03303303,
02,
1211,
10201101,
10201101,
1222,
10011000,
00101013,
03303303,
02,
10101001,
000000500000000000000008000000000000000000000000,
20202002,
000000500000000000000008000000000000000000000000,
1122,
100000000000100000000000500000000008000000000000,
11010011,
01001101,
00110100,
2300,
,
#END

COURSE:Easy
LEVEL:4
#START
3,
00030300,
3,
00030300,
3,
00030300,
600000000000000000000000000000000000000000000008,
,
10010000,
10010000,
10010000,
20020000,
10010000,
10010000,
10010101,
01010000,
0111,
10010000,
0111,
10010100,
0111,
10010000,
0110,
21,
01010100,
10020000,
0110,
10020000,
0111,
1111,
10010100,
3,//32
#GOGOSTART
10011000,
10011000,
10011000,
10011000,
10011000,
00101003,
00003003,
0110,
10011000,
10011000,
10011000,
10011000,
10011000,
00101003,
00003003,
0222,
10101001,
000000500000000000000008000000000000000000000000,
10101001,
000000500000000000000008000000000000000000000000,
1110,
1110,
500000000000000000000000000000000008000000000000,
3,//56
#GOGOEND
1,
1,
1,
1,
1,
1,
30030030,
03003000,
10020200,
10020200,
10020200,
10020200,
1212,
1212,
10010100,
3,//72
#GOGOSTART
10011000,
10011000,
10011000,
10011000,
10011000,
10101003,
00003003,
0110,
10011000,
10011000,
10011000,
10011000,
10011000,
00101003,
00003003,
0222,
10101001,
000000500000000000000008000000000000000000000000,
10101001,
000000500000000000000008000000000000000000000000,
1120,
1110,
10010010,
01001001,
00100100,
1300,
,
#END
